  0
SECTION
  2
HEADER
  9
$ACADVER
  1
AC1015
  9
$ACADMAINTVER
 70
     6
  9
$DWGCODEPAGE
  3
ANSI_1252
  9
$INSBASE
 10
0.0
 20
0.0
 30
0.0
  9
$EXTMIN
 10
-385.3798067570643
 20
-713.3813695610103
 30
0.0
  9
$EXTMAX
 10
876.0506106376216
 20
886.6186304389922
 30
0.0
  9
$LIMMIN
 10
0.0
 20
0.0
  9
$LIMMAX
 10
12.0
 20
9.0
  9
$ORTHOMODE
 70
     0
  9
$REGENMODE
 70
     1
  9
$FILLMODE
 70
     1
  9
$QTEXTMODE
 70
     0
  9
$MIRRTEXT
 70
     1
  9
$LTSCALE
 40
1.0
  9
$ATTMODE
 70
     1
  9
$TEXTSIZE
 40
250.0
  9
$TRACEWID
 40
0.05
  9
$TEXTSTYLE
  7
STANDARD
  9
$CLAYER
  8
0
  9
$CELTYPE
  6
BYLAYER
  9
$CECOLOR
 62
   256
  9
$CELTSCALE
 40
1.0
  9
$DISPSILH
 70
     0
  9
$DIMSCALE
 40
1.0
  9
$DIMASZ
 40
15.0
  9
$DIMEXO
 40
5.0
  9
$DIMDLI
 40
0.38
  9
$DIMRND
 40
0.0
  9
$DIMDLE
 40
0.0
  9
$DIMEXE
 40
12.0
  9
$DIMTP
 40
0.0
  9
$DIMTM
 40
0.0
  9
$DIMTXT
 40
10.0
  9
$DIMCEN
 40
2.0
  9
$DIMTSZ
 40
0.0
  9
$DIMTOL
 70
     0
  9
$DIMLIM
 70
     0
  9
$DIMTIH
 70
     1
  9
$DIMTOH
 70
     1
  9
$DIMSE1
 70
     0
  9
$DIMSE2
 70
     0
  9
$DIMTAD
 70
     0
  9
$DIMZIN
 70
     8
  9
$DIMBLK
  1

  9
$DIMASO
 70
     1
  9
$DIMSHO
 70
     1
  9
$DIMPOST
  1

  9
$DIMAPOST
  1

  9
$DIMALT
 70
     0
  9
$DIMALTD
 70
     2
  9
$DIMALTF
 40
25.4
  9
$DIMLFAC
 40
1.0
  9
$DIMTOFL
 70
     1
  9
$DIMTVP
 40
0.0
  9
$DIMTIX
 70
     0
  9
$DIMSOXD
 70
     0
  9
$DIMSAH
 70
     0
  9
$DIMBLK1
  1

  9
$DIMBLK2
  1

  9
$DIMSTYLE
  2
STANDARD
  9
$DIMCLRD
 70
     0
  9
$DIMCLRE
 70
     0
  9
$DIMCLRT
 70
     0
  9
$DIMTFAC
 40
1.0
  9
$DIMGAP
 40
4.0
  9
$DIMJUST
 70
     0
  9
$DIMSD1
 70
     0
  9
$DIMSD2
 70
     0
  9
$DIMTOLJ
 70
     1
  9
$DIMTZIN
 70
     0
  9
$DIMALTZ
 70
     0
  9
$DIMALTTZ
 70
     0
  9
$DIMUPT
 70
     1
  9
$DIMDEC
 70
     3
  9
$DIMTDEC
 70
     4
  9
$DIMALTU
 70
     2
  9
$DIMALTTD
 70
     2
  9
$DIMTXSTY
  7
STANDARD
  9
$DIMAUNIT
 70
     0
  9
$DIMADEC
 70
     0
  9
$DIMALTRND
 40
0.0
  9
$DIMAZIN
 70
     0
  9
$DIMDSEP
 70
    46
  9
$DIMATFIT
 70
     3
  9
$DIMFRAC
 70
     0
  9
$DIMLDRBLK
  1

  9
$DIMLUNIT
 70
     2
  9
$DIMLWD
 70
    -2
  9
$DIMLWE
 70
    -2
  9
$DIMTMOVE
 70
     0
  9
$LUNITS
 70
     2
  9
$LUPREC
 70
     4
  9
$SKETCHINC
 40
0.1
  9
$FILLETRAD
 40
45.0
  9
$AUNITS
 70
     0
  9
$AUPREC
 70
     0
  9
$MENU
  1
acad
  9
$ELEVATION
 40
0.0
  9
$PELEVATION
 40
0.0
  9
$THICKNESS
 40
0.0
  9
$LIMCHECK
 70
     0
  9
$CHAMFERA
 40
0.5
  9
$CHAMFERB
 40
0.5
  9
$CHAMFERC
 40
1.0
  9
$CHAMFERD
 40
0.0
  9
$SKPOLY
 70
     0
  9
$TDCREATE
 40
2451589.67222338
  9
$TDUCREATE
 40
2451589.23472338
  9
$TDUPDATE
 40
2456986.393255683
  9
$TDUUPDATE
 40
2456985.955755683
  9
$TDINDWG
 40
2.0429116782
  9
$TDUSRTIMER
 40
2456985.955106273
  9
$USRTIMER
 70
     1
  9
$ANGBASE
 50
0.0
  9
$ANGDIR
 70
     0
  9
$PDMODE
 70
     0
  9
$PDSIZE
 40
0.0
  9
$PLINEWID
 40
0.0
  9
$SPLFRAME
 70
     0
  9
$SPLINETYPE
 70
     6
  9
$SPLINESEGS
 70
     8
  9
$HANDSEED
  5
D3B
  9
$SURFTAB1
 70
     6
  9
$SURFTAB2
 70
     6
  9
$SURFTYPE
 70
     6
  9
$SURFU
 70
     6
  9
$SURFV
 70
     6
  9
$UCSBASE
  2

  9
$UCSNAME
  2

  9
$UCSORG
 10
0.0
 20
0.0
 30
0.0
  9
$UCSXDIR
 10
1.0
 20
0.0
 30
0.0
  9
$UCSYDIR
 10
0.0
 20
1.0
 30
0.0
  9
$UCSORTHOREF
  2

  9
$UCSORTHOVIEW
 70
     0
  9
$UCSORGTOP
 10
0.0
 20
0.0
 30
0.0
  9
$UCSORGBOTTOM
 10
0.0
 20
0.0
 30
0.0
  9
$UCSORGLEFT
 10
0.0
 20
0.0
 30
0.0
  9
$UCSORGRIGHT
 10
0.0
 20
0.0
 30
0.0
  9
$UCSORGFRONT
 10
0.0
 20
0.0
 30
0.0
  9
$UCSORGBACK
 10
0.0
 20
0.0
 30
0.0
  9
$PUCSBASE
  2

  9
$PUCSNAME
  2

  9
$PUCSORG
 10
0.0
 20
0.0
 30
0.0
  9
$PUCSXDIR
 10
1.0
 20
0.0
 30
0.0
  9
$PUCSYDIR
 10
0.0
 20
1.0
 30
0.0
  9
$PUCSORTHOREF
  2

  9
$PUCSORTHOVIEW
 70
     0
  9
$PUCSORGTOP
 10
0.0
 20
0.0
 30
0.0
  9
$PUCSORGBOTTOM
 10
0.0
 20
0.0
 30
0.0
  9
$PUCSORGLEFT
 10
0.0
 20
0.0
 30
0.0
  9
$PUCSORGRIGHT
 10
0.0
 20
0.0
 30
0.0
  9
$PUCSORGFRONT
 10
0.0
 20
0.0
 30
0.0
  9
$PUCSORGBACK
 10
0.0
 20
0.0
 30
0.0
  9
$USERI1
 70
     0
  9
$USERI2
 70
     0
  9
$USERI3
 70
     0
  9
$USERI4
 70
     0
  9
$USERI5
 70
     0
  9
$USERR1
 40
0.0
  9
$USERR2
 40
0.0
  9
$USERR3
 40
0.0
  9
$USERR4
 40
0.0
  9
$USERR5
 40
0.0
  9
$WORLDVIEW
 70
     1
  9
$SHADEDGE
 70
     3
  9
$SHADEDIF
 70
    70
  9
$TILEMODE
 70
     1
  9
$MAXACTVP
 70
    16
  9
$PINSBASE
 10
0.0
 20
0.0
 30
0.0
  9
$PLIMCHECK
 70
     0
  9
$PEXTMIN
 10
1.000000000000000E+20
 20
1.000000000000000E+20
 30
1.000000000000000E+20
  9
$PEXTMAX
 10
-1.000000000000000E+20
 20
-1.000000000000000E+20
 30
-1.000000000000000E+20
  9
$PLIMMIN
 10
0.0
 20
0.0
  9
$PLIMMAX
 10
0.0
 20
0.0
  9
$UNITMODE
 70
     0
  9
$VISRETAIN
 70
     0
  9
$PLINEGEN
 70
     0
  9
$PSLTSCALE
 70
     1
  9
$TREEDEPTH
 70
  3020
  9
$CMLSTYLE
  2
STANDARD
  9
$CMLJUST
 70
     0
  9
$CMLSCALE
 40
1.0
  9
$PROXYGRAPHICS
 70
     1
  9
$MEASUREMENT
 70
     0
  9
$CELWEIGHT
370
    -1
  9
$ENDCAPS
280
     0
  9
$JOINSTYLE
280
     0
  9
$LWDISPLAY
290
     0
  9
$INSUNITS
 70
     0
  9
$HYPERLINKBASE
  1

  9
$STYLESHEET
  1

  9
$XEDIT
290
     1
  9
$CEPSNTYPE
380
     0
  9
$PSTYLEMODE
290
     1
  9
$FINGERPRINTGUID
  2
{88E2740E-8CF2-4ED3-8A46-493A9FA0D835}
  9
$VERSIONGUID
  2
{5D721B16-BC8D-4E45-85FF-7A8FA814FE0C}
  9
$EXTNAMES
290
     1
  9
$PSVPSCALE
 40
0.0
  9
$OLESTARTUP
290
     0
  0
ENDSEC
  0
SECTION
  2
CLASSES
  0
CLASS
  1
LWPOLYLINE
  2
AcDbPolyline
  3
ObjectDBX Classes
 90
        0
280
     0
281
     1
  0
CLASS
  1
ACDBDICTIONARYWDFLT
  2
AcDbDictionaryWithDefault
  3
ObjectDBX Classes
 90
        0
280
     0
281
     0
  0
CLASS
  1
DICTIONARYVAR
  2
AcDbDictionaryVar
  3
ObjectDBX Classes
 90
        0
280
     0
281
     0
  0
CLASS
  1
ACDBPLACEHOLDER
  2
AcDbPlaceHolder
  3
ObjectDBX Classes
 90
        0
280
     0
281
     0
  0
CLASS
  1
LAYOUT
  2
AcDbLayout
  3
ObjectDBX Classes
 90
        0
280
     0
281
     0
  0
CLASS
  1
VISUALSTYLE
  2
AcDbVisualStyle
  3
ObjectDBX Classes
 90
     4095
280
     0
281
     0
  0
CLASS
  1
SCALE
  2
AcDbScale
  3
ObjectDBX Classes
 90
     1153
280
     0
281
     0
  0
CLASS
  1
MATERIAL
  2
AcDbMaterial
  3
ObjectDBX Classes
 90
     1153
280
     0
281
     0
  0
CLASS
  1
TABLESTYLE
  2
AcDbTableStyle
  3
ObjectDBX Classes
 90
     4095
280
     0
281
     0
  0
CLASS
  1
SUN
  2
AcDbSun
  3
SCENEOE
 90
     1153
280
     0
281
     0
  0
CLASS
  1
RASTERVARIABLES
  2
AcDbRasterVariables
  3
ISM
 90
        0
280
     0
281
     0
  0
CLASS
  1
MLEADERSTYLE
  2
AcDbMLeaderStyle
  3
ACDB_MLEADERSTYLE_CLASS
 90
     4095
280
     0
281
     0
  0
ENDSEC
  0
SECTION
  2
TABLES
  0
TABLE
  2
VPORT
  5
12
330
0
100
AcDbSymbolTable
 70
     3
  0
VPORT
  5
CEE
330
12
100
AcDbSymbolTableRecord
100
AcDbViewportTableRecord
  2
*Active
 70
     0
 10
0.0
 20
0.0
 11
1.0
 21
1.0
 12
279.4984807136871
 22
162.5299219213823
 13
0.0
 23
0.0
 14
0.2
 24
0.2
 15
0.0
 25
0.0
 16
0.0
 26
0.0
 36
1.0
 17
0.0
 27
0.0
 37
0.0
 40
797.1487510727418
 41
1.676506765067651
 42
50.0
 43
0.0
 44
0.0
 50
0.0
 51
0.0
 71
     0
 72
   100
 73
     1
 74
     0
 75
     0
 76
     0
 77
     0
 78
     0
281
     0
 65
     1
110
0.0
120
0.0
130
0.0
111
1.0
121
0.0
131
0.0
112
0.0
122
1.0
132
0.0
 79
     0
146
0.0
  0
ENDTAB
  0
TABLE
  2
LTYPE
  5
E
330
0
100
AcDbSymbolTable
 70
     1
  0
LTYPE
  5
F
330
E
100
AcDbSymbolTableRecord
100
AcDbLinetypeTableRecord
  2
BYBLOCK
 70
     0
  3

 72
    65
 73
     0
 40
0.0
  0
LTYPE
  5
6
330
E
100
AcDbSymbolTableRecord
100
AcDbLinetypeTableRecord
  2
BYLAYER
 70
     0
  3

 72
    65
 73
     0
 40
0.0
  0
LTYPE
  5
5
330
E
100
AcDbSymbolTableRecord
100
AcDbLinetypeTableRecord
  2
CONTINUOUS
 70
     0
  3
Solid line
 72
    65
 73
     0
 40
0.0
  0
ENDTAB
  0
TABLE
  2
LAYER
  5
B
330
0
100
AcDbSymbolTable
 70
     2
  0
LAYER
  5
4
330
B
100
AcDbSymbolTableRecord
100
AcDbLayerTableRecord
  2
0
 70
     0
 62
     7
  6
CONTINUOUS
370
    -3
390
B74
  0
LAYER
  5
385
330
B
100
AcDbSymbolTableRecord
100
AcDbLayerTableRecord
  2
DEFPOINTS
 70
     0
 62
     7
  6
CONTINUOUS
290
     0
370
    -3
390
B74
  0
ENDTAB
  0
TABLE
  2
STYLE
  5
C
330
0
100
AcDbSymbolTable
 70
     1
  0
STYLE
  5
D
330
C
100
AcDbSymbolTableRecord
100
AcDbTextStyleTableRecord
  2
STANDARD
 70
     0
 40
0.0
 41
1.0
 50
0.0
 71
     0
 42
250.0
  3
txt
  4

  0
ENDTAB
  0
TABLE
  2
VIEW
  5
10
330
0
100
AcDbSymbolTable
 70
     0
  0
ENDTAB
  0
TABLE
  2
UCS
  5
11
330
0
100
AcDbSymbolTable
 70
     0
  0
ENDTAB
  0
TABLE
  2
APPID
  5
14
330
0
100
AcDbSymbolTable
 70
     1
  0
APPID
  5
15
330
14
100
AcDbSymbolTableRecord
100
AcDbRegAppTableRecord
  2
ACAD
 70
     0
  0
ENDTAB
  0
TABLE
  2
DIMSTYLE
  5
16
330
0
100
AcDbSymbolTable
 70
     1
100
AcDbDimStyleTable
  0
DIMSTYLE
105
1D
102
{ACAD_REACTORS
330
B9A
330
BA8
330
BB6
330
BE6
330
C02
330
C33
330
C3D
330
CA1
330
CB0
330
CBF
102
}
330
16
100
AcDbSymbolTableRecord
100
AcDbDimStyleTableRecord
  2
STANDARD
 70
     0
178
     0
340
D
  0
ENDTAB
  0
TABLE
  2
BLOCK_RECORD
  5
1
330
0
100
AcDbSymbolTable
 70
    21
  0
BLOCK_RECORD
  5
2
330
1
100
AcDbSymbolTableRecord
100
AcDbBlockTableRecord
  2
*MODEL_SPACE
340
B79
  0
BLOCK_RECORD
  5
8
330
1
100
AcDbSymbolTableRecord
100
AcDbBlockTableRecord
  2
*PAPER_SPACE
340
B7A
  0
BLOCK_RECORD
  5
B9B
330
1
100
AcDbSymbolTableRecord
100
AcDbBlockTableRecord
  2
*D0
340
0
  0
BLOCK_RECORD
  5
BA9
330
1
100
AcDbSymbolTableRecord
100
AcDbBlockTableRecord
  2
*D1
340
0
  0
BLOCK_RECORD
  5
BB7
330
1
100
AcDbSymbolTableRecord
100
AcDbBlockTableRecord
  2
*D2
340
0
  0
BLOCK_RECORD
  5
BE7
330
1
100
AcDbSymbolTableRecord
100
AcDbBlockTableRecord
  2
*D4
340
0
  0
BLOCK_RECORD
  5
C03
330
1
100
AcDbSymbolTableRecord
100
AcDbBlockTableRecord
  2
*D6
340
0
  0
BLOCK_RECORD
  5
C34
330
1
100
AcDbSymbolTableRecord
100
AcDbBlockTableRecord
  2
*D10
340
0
  0
BLOCK_RECORD
  5
C3E
330
1
100
AcDbSymbolTableRecord
100
AcDbBlockTableRecord
  2
*D11
340
0
  0
BLOCK_RECORD
  5
CA2
330
1
100
AcDbSymbolTableRecord
100
AcDbBlockTableRecord
  2
*D18
340
0
  0
BLOCK_RECORD
  5
CB1
330
1
100
AcDbSymbolTableRecord
100
AcDbBlockTableRecord
  2
*D19
340
0
  0
BLOCK_RECORD
  5
CC0
330
1
100
AcDbSymbolTableRecord
100
AcDbBlockTableRecord
  2
*D20
340
0
  0
ENDTAB
  0
ENDSEC
  0
SECTION
  2
BLOCKS
  0
BLOCK
  5
3
330
2
100
AcDbEntity
  8
0
100
AcDbBlockBegin
  2
*MODEL_SPACE
 70
     0
 10
0.0
 20
0.0
 30
0.0
  3
*MODEL_SPACE
  1
*MODEL_SPACE
  0
ENDBLK
  5
7
330
2
100
AcDbEntity
  8
0
100
AcDbBlockEnd
  0
BLOCK
  5
9
330
8
100
AcDbEntity
 67
     1
  8
0
100
AcDbBlockBegin
  2
*PAPER_SPACE
 70
     0
 10
0.0
 20
0.0
 30
0.0
  3
*PAPER_SPACE
  1
*PAPER_SPACE
  0
ENDBLK
  5
A
330
8
100
AcDbEntity
 67
     1
  8
0
100
AcDbBlockEnd
  0
BLOCK
  5
BA6
330
B9B
100
AcDbEntity
  8
0
100
AcDbBlockBegin
  2
*D0
 70
     1
 10
0.0
 20
0.0
 30
0.0
  3
*D0
  1
*D0
  0
LINE
  5
B9C
330
B9B
100
AcDbEntity
  8
0
 62
     0
370
    -2
100
AcDbLine
 10
-106.8798067570496
 20
91.61863043899221
 30
0.0
 11
-106.8798067570495
 21
416.3159815995376
 31
0.0
  0
LINE
  5
B9D
330
B9B
100
AcDbEntity
  8
0
 62
     0
370
    -2
100
AcDbLine
 10
416.1201932429493
 20
91.61863043899025
 30
0.0
 11
416.1201932429493
 21
416.3159815995376
 31
0.0
  0
LINE
  5
B9E
330
B9B
100
AcDbEntity
  8
0
 62
     0
370
    -2
100
AcDbLine
 10
-91.87980675704954
 20
404.3159815995376
 30
0.0
 11
138.4711631398965
 21
404.3159815995376
 31
0.0
  0
LINE
  5
B9F
330
B9B
100
AcDbEntity
  8
0
 62
     0
370
    -2
100
AcDbLine
 10
401.1201932429493
 20
404.3159815995376
 30
0.0
 11
173.1378298065632
 21
404.3159815995376
 31
0.0
  0
SOLID
  5
BA0
330
B9B
100
AcDbEntity
  8
0
 62
     0
100
AcDbTrace
 10
-91.87980675704954
 20
406.8159815995376
 30
0.0
 11
-91.87980675704954
 21
401.8159815995376
 31
0.0
 12
-106.8798067570495
 22
404.3159815995376
 32
0.0
 13
-106.8798067570495
 23
404.3159815995376
 33
0.0
  0
SOLID
  5
BA1
330
B9B
100
AcDbEntity
  8
0
 62
     0
100
AcDbTrace
 10
401.1201932429493
 20
406.8159815995376
 30
0.0
 11
401.1201932429493
 21
401.8159815995376
 31
0.0
 12
416.1201932429493
 22
404.3159815995376
 32
0.0
 13
416.1201932429493
 23
404.3159815995376
 33
0.0
  0
MTEXT
  5
BA2
330
B9B
100
AcDbEntity
  8
0
 62
     0
100
AcDbMText
 10
155.8044964732298
 20
404.3159815995376
 30
0.0
 40
10.0
 41
0.0
 71
     5
 72
     1
  1
\A1;523
 73
     1
 44
1.0
  0
POINT
  5
BA3
330
B9B
100
AcDbEntity
  8
DEFPOINTS
 62
     0
100
AcDbPoint
 10
-106.8798067570496
 20
86.61863043899221
 30
0.0
  0
POINT
  5
BA4
330
B9B
100
AcDbEntity
  8
DEFPOINTS
 62
     0
100
AcDbPoint
 10
416.1201932429493
 20
86.61863043899025
 30
0.0
  0
POINT
  5
BA5
330
B9B
100
AcDbEntity
  8
DEFPOINTS
 62
     0
100
AcDbPoint
 10
416.1201932429493
 20
404.3159815995376
 30
0.0
  0
ENDBLK
  5
BA7
330
B9B
100
AcDbEntity
  8
0
100
AcDbBlockEnd
  0
BLOCK
  5
BB4
330
BA9
100
AcDbEntity
  8
0
100
AcDbBlockBegin
  2
*D1
 70
     1
 10
0.0
 20
0.0
 30
0.0
  3
*D1
  1
*D1
  0
LINE
  5
BAA
330
BA9
100
AcDbEntity
  8
0
 62
     0
370
    -2
100
AcDbLine
 10
159.6201932429504
 20
288.1186304389915
 30
0.0
 11
579.5234187934401
 21
288.1186304389915
 31
0.0
  0
LINE
  5
BAB
330
BA9
100
AcDbEntity
  8
0
 62
     0
370
    -2
100
AcDbLine
 10
159.6201932429493
 20
-114.8813695610082
 30
0.0
 11
579.52341879344
 21
-114.8813695610084
 31
0.0
  0
LINE
  5
BAC
330
BA9
100
AcDbEntity
  8
0
 62
     0
370
    -2
100
AcDbLine
 10
567.5234187934401
 20
273.1186304389915
 30
0.0
 11
567.52341879344
 21
99.13215352417696
 31
0.0
  0
LINE
  5
BAD
330
BA9
100
AcDbEntity
  8
0
 62
     0
370
    -2
100
AcDbLine
 10
567.52341879344
 20
-99.88136956100836
 30
0.0
 11
567.52341879344
 21
81.13215352417696
 31
0.0
  0
SOLID
  5
BAE
330
BA9
100
AcDbEntity
  8
0
 62
     0
100
AcDbTrace
 10
565.0234187934401
 20
273.1186304389915
 30
0.0
 11
570.0234187934401
 21
273.1186304389915
 31
0.0
 12
567.5234187934401
 22
288.1186304389915
 32
0.0
 13
567.5234187934401
 23
288.1186304389915
 33
0.0
  0
SOLID
  5
BAF
330
BA9
100
AcDbEntity
  8
0
 62
     0
100
AcDbTrace
 10
565.02341879344
 20
-99.88136956100836
 30
0.0
 11
570.02341879344
 21
-99.88136956100836
 31
0.0
 12
567.52341879344
 22
-114.8813695610084
 32
0.0
 13
567.52341879344
 23
-114.8813695610084
 33
0.0
  0
MTEXT
  5
BB0
330
BA9
100
AcDbEntity
  8
0
 62
     0
100
AcDbMText
 10
567.52341879344
 20
90.13215352417706
 30
0.0
 40
10.0
 41
0.0
 71
     5
 72
     1
  1
\A1;403
 73
     1
 44
1.0
  0
POINT
  5
BB1
330
BA9
100
AcDbEntity
  8
DEFPOINTS
 62
     0
100
AcDbPoint
 10
154.6201932429504
 20
288.1186304389915
 30
0.0
  0
POINT
  5
BB2
330
BA9
100
AcDbEntity
  8
DEFPOINTS
 62
     0
100
AcDbPoint
 10
154.6201932429493
 20
-114.8813695610082
 30
0.0
  0
POINT
  5
BB3
330
BA9
100
AcDbEntity
  8
DEFPOINTS
 62
     0
100
AcDbPoint
 10
567.52341879344
 20
-114.8813695610084
 30
0.0
  0
ENDBLK
  5
BB5
330
BA9
100
AcDbEntity
  8
0
100
AcDbBlockEnd
  0
BLOCK
  5
BC2
330
BB7
100
AcDbEntity
  8
0
100
AcDbBlockBegin
  2
*D2
 70
     1
 10
0.0
 20
0.0
 30
0.0
  3
*D2
  1
*D2
  0
LINE
  5
CDA
330
BB7
100
AcDbEntity
  8
0
 62
     0
370
    -2
100
AcDbLine
 10
314.2403864859007
 20
173.2372608779824
 30
0.0
 11
507.7119801998863
 21
173.2372608779824
 31
0.0
  0
LINE
  5
CDB
330
BB7
100
AcDbEntity
  8
0
 62
     0
370
    -2
100
AcDbLine
 10
314.2403864858989
 20
-0.0000000000000014
 30
0.0
 11
507.7119801998863
 21
-0.0000000000000562
 31
0.0
  0
LINE
  5
CDC
330
BB7
100
AcDbEntity
  8
0
 62
     0
370
    -2
100
AcDbLine
 10
495.7119801998863
 20
158.2372608779824
 30
0.0
 11
495.7119801998863
 21
87.17084053405361
 31
0.0
  0
LINE
  5
CDD
330
BB7
100
AcDbEntity
  8
0
 62
     0
370
    -2
100
AcDbLine
 10
495.7119801998863
 20
14.99999999999995
 30
0.0
 11
495.7119801998863
 21
69.17084053405361
 31
0.0
  0
SOLID
  5
CDE
330
BB7
100
AcDbEntity
  8
0
 62
     0
100
AcDbTrace
 10
493.2119801998863
 20
158.2372608779824
 30
0.0
 11
498.2119801998863
 21
158.2372608779824
 31
0.0
 12
495.7119801998863
 22
173.2372608779824
 32
0.0
 13
495.7119801998863
 23
173.2372608779824
 33
0.0
  0
SOLID
  5
CDF
330
BB7
100
AcDbEntity
  8
0
 62
     0
100
AcDbTrace
 10
493.2119801998863
 20
14.99999999999995
 30
0.0
 11
498.2119801998863
 21
14.99999999999995
 31
0.0
 12
495.7119801998863
 22
-0.0000000000000528
 32
0.0
 13
495.7119801998863
 23
-0.0000000000000528
 33
0.0
  0
MTEXT
  5
CE0
330
BB7
100
AcDbEntity
  8
0
 62
     0
100
AcDbMText
 10
495.7119801998863
 20
78.1708405340537
 30
0.0
 40
10.0
 41
0.0
 71
     5
 72
     1
  1
\A1;173.2
 73
     1
 44
1.0
  0
POINT
  5
CE1
330
BB7
100
AcDbEntity
  8
DEFPOINTS
 62
     0
100
AcDbPoint
 10
309.2403864859007
 20
173.2372608779824
 30
0.0
  0
POINT
  5
CE2
330
BB7
100
AcDbEntity
  8
DEFPOINTS
 62
     0
100
AcDbPoint
 10
309.2403864858989
 20
0.0
 30
0.0
  0
POINT
  5
CE3
330
BB7
100
AcDbEntity
  8
DEFPOINTS
 62
     0
100
AcDbPoint
 10
495.7119801998863
 20
-0.0000000000000528
 30
0.0
  0
ENDBLK
  5
BC3
330
BB7
100
AcDbEntity
  8
0
100
AcDbBlockEnd
  0
BLOCK
  5
BF2
330
BE7
100
AcDbEntity
  8
0
100
AcDbBlockBegin
  2
*D4
 70
     1
 10
0.0
 20
0.0
 30
0.0
  3
*D4
  1
*D4
  0
LINE
  5
CE4
330
BE7
100
AcDbEntity
  8
0
 62
     0
370
    -2
100
AcDbLine
 10
309.2403864859007
 20
178.2372608779824
 30
0.0
 11
309.2403864859007
 21
360.6783727430303
 31
0.0
  0
LINE
  5
CE5
330
BE7
100
AcDbEntity
  8
0
 62
     0
370
    -2
100
AcDbLine
 10
0.0000000000000003
 20
178.2372608779824
 30
0.0
 11
0.0000000000000115
 21
360.6783727430303
 31
0.0
  0
LINE
  5
CE6
330
BE7
100
AcDbEntity
  8
0
 62
     0
370
    -2
100
AcDbLine
 10
294.2403864859007
 20
348.6783727430303
 30
0.0
 11
158.1639923825229
 21
348.6783727430303
 31
0.0
  0
LINE
  5
CE7
330
BE7
100
AcDbEntity
  8
0
 62
     0
370
    -2
100
AcDbLine
 10
15.00000000000001
 20
348.6783727430303
 30
0.0
 11
111.8306590491896
 21
348.6783727430303
 31
0.0
  0
SOLID
  5
CE8
330
BE7
100
AcDbEntity
  8
0
 62
     0
100
AcDbTrace
 10
294.2403864859007
 20
351.1783727430303
 30
0.0
 11
294.2403864859007
 21
346.1783727430303
 31
0.0
 12
309.2403864859007
 22
348.6783727430303
 32
0.0
 13
309.2403864859007
 23
348.6783727430303
 33
0.0
  0
SOLID
  5
CE9
330
BE7
100
AcDbEntity
  8
0
 62
     0
100
AcDbTrace
 10
15.00000000000001
 20
351.1783727430303
 30
0.0
 11
15.00000000000001
 21
346.1783727430303
 31
0.0
 12
0.0000000000000107
 22
348.6783727430303
 32
0.0
 13
0.0000000000000107
 23
348.6783727430303
 33
0.0
  0
MTEXT
  5
CEA
330
BE7
100
AcDbEntity
  8
0
 62
     0
100
AcDbMText
 10
134.9973257158563
 20
348.6783727430303
 30
0.0
 40
10.0
 41
0.0
 71
     5
 72
     1
  1
\A1;309.2
 73
     1
 44
1.0
  0
POINT
  5
CEB
330
BE7
100
AcDbEntity
  8
DEFPOINTS
 62
     0
100
AcDbPoint
 10
309.2403864859007
 20
173.2372608779824
 30
0.0
  0
POINT
  5
CEC
330
BE7
100
AcDbEntity
  8
DEFPOINTS
 62
     0
100
AcDbPoint
 10
0.0
 20
173.2372608779824
 30
0.0
  0
POINT
  5
CED
330
BE7
100
AcDbEntity
  8
DEFPOINTS
 62
     0
100
AcDbPoint
 10
0.0000000000000107
 20
348.6783727430303
 30
0.0
  0
ENDBLK
  5
BF3
330
BE7
100
AcDbEntity
  8
0
100
AcDbBlockEnd
  0
BLOCK
  5
C0A
330
C03
100
AcDbEntity
  8
0
100
AcDbBlockBegin
  2
*D6
 70
     1
 10
0.0
 20
0.0
 30
0.0
  3
*D6
  1
*D6
  0
LINE
  5
C0C
330
C03
100
AcDbEntity
  8
0
 62
     0
370
    -2
100
AcDbLine
 10
38.4774863219555
 20
148.0339577185685
 30
0.0
 11
23.47748632195552
 21
148.0339577185686
 31
0.0
  0
LINE
  5
C0D
330
C03
100
AcDbEntity
  8
0
 62
     0
370
    -2
100
AcDbLine
 10
23.47748632195552
 20
148.0339577185686
 30
0.0
 11
-58.95930348916256
 21
236.5306296623411
 31
0.0
  0
MTEXT
  5
C0E
330
C03
100
AcDbEntity
  8
0
 62
     0
100
AcDbMText
 10
120.8108196552888
 20
148.0339577185686
 30
0.0
 40
10.0
 41
0.0
 71
     5
 72
     1
  1
\A1;101.5 Typ 4 Places
 73
     1
 44
1.0
  0
SOLID
  5
C0F
330
C03
100
AcDbEntity
  8
0
 62
     0
100
AcDbTrace
 10
-57.1300153740077
 20
238.2346557747447
 30
0.0
 11
-60.78859160431745
 21
234.8266035499376
 31
0.0
 12
-69.1834601635838
 22
247.5063583532703
 32
0.0
 13
-69.1834601635838
 23
247.5063583532703
 33
0.0
  0
POINT
  5
C10
330
C03
100
AcDbEntity
  8
DEFPOINTS
 62
     0
100
AcDbPoint
 10
-69.1834601635838
 20
247.5063583532703
 30
0.0
  0
POINT
  5
C11
330
C03
100
AcDbEntity
  8
DEFPOINTS
 62
     0
100
AcDbPoint
 10
-0.0000000000000142
 20
173.2372608779827
 30
0.0
  0
ENDBLK
  5
C0B
330
C03
100
AcDbEntity
  8
0
100
AcDbBlockEnd
  0
BLOCK
  5
C3B
330
C34
100
AcDbEntity
  8
0
100
AcDbBlockBegin
  2
*D10
 70
     1
 10
0.0
 20
0.0
 30
0.0
  3
*D10
  1
*D10
  0
LINE
  5
C9B
330
C34
100
AcDbEntity
  8
0
 62
     0
370
    -2
100
AcDbLine
 10
105.9853725969309
 20
189.4021303152375
 30
0.0
 11
90.9853725969309
 21
189.4021303152376
 31
0.0
  0
LINE
  5
C9C
330
C34
100
AcDbEntity
  8
0
 62
     0
370
    -2
100
AcDbLine
 10
90.9853725969309
 20
189.4021303152376
 30
0.0
 11
85.25652003023713
 21
270.6770285223777
 31
0.0
  0
MTEXT
  5
C9D
330
C34
100
AcDbEntity
  8
0
 62
     0
100
AcDbMText
 10
192.4853725969308
 20
189.4021303152376
 30
0.0
 40
10.0
 41
0.0
 71
     5
 72
     1
  1
\A1;1001.5 Typ 2 Places
 73
     1
 44
1.0
  0
SOLID
  5
C9E
330
C34
100
AcDbEntity
  8
0
 62
     0
100
AcDbTrace
 10
87.75033249370237
 20
270.8528107656942
 30
0.0
 11
82.76270756677188
 21
270.5012462790611
 31
0.0
 12
84.20182657033779
 22
285.6399033031691
 32
0.0
 13
84.20182657033779
 23
285.6399033031691
 33
0.0
  0
POINT
  5
C9F
330
C34
100
AcDbEntity
  8
DEFPOINTS
 62
     0
100
AcDbPoint
 10
84.20182657033779
 20
285.6399033031691
 30
0.0
  0
POINT
  5
CA0
330
C34
100
AcDbEntity
  8
DEFPOINTS
 62
     0
100
AcDbPoint
 10
154.6201932429504
 20
-713.3813695610103
 30
0.0
  0
ENDBLK
  5
C3C
330
C34
100
AcDbEntity
  8
0
100
AcDbBlockEnd
  0
BLOCK
  5
C44
330
C3E
100
AcDbEntity
  8
0
100
AcDbBlockBegin
  2
*D11
 70
     1
 10
0.0
 20
0.0
 30
0.0
  3
*D11
  1
*D11
  0
LINE
  5
C96
330
C3E
100
AcDbEntity
  8
0
 62
     0
370
    -2
100
AcDbLine
 10
212.2039122613484
 20
66.27362506642463
 30
0.0
 11
400.6647759732008
 21
59.85739054946779
 31
0.0
  0
MTEXT
  5
C97
330
C3E
100
AcDbEntity
  8
0
 62
     0
100
AcDbMText
 10
128.2039122613484
 20
66.27362506642461
 30
0.0
 40
10.0
 41
0.0
 71
     5
 72
     1
  1
\A1;801.5 Typ 2 Places
 73
     1
 44
1.0
  0
SOLID
  5
C98
330
C3E
100
AcDbEntity
  8
0
 62
     0
100
AcDbTrace
 10
400.749840308514
 20
62.35594294212593
 30
0.0
 11
400.5797116378876
 21
57.35883815680965
 31
0.0
 12
415.6560903291497
 22
59.34700453758865
 32
0.0
 13
415.6560903291497
 23
59.34700453758865
 33
0.0
  0
POINT
  5
C99
330
C3E
100
AcDbEntity
  8
DEFPOINTS
 62
     0
100
AcDbPoint
 10
415.6560903291497
 20
59.34700453758865
 30
0.0
  0
POINT
  5
C9A
330
C3E
100
AcDbEntity
  8
DEFPOINTS
 62
     0
100
AcDbPoint
 10
-385.3798067570643
 20
86.61863043899753
 30
0.0
  0
ENDBLK
  5
C45
330
C3E
100
AcDbEntity
  8
0
100
AcDbBlockEnd
  0
BLOCK
  5
CAE
330
CA2
100
AcDbEntity
  8
0
100
AcDbBlockBegin
  2
*D18
 70
     1
 10
0.0
 20
0.0
 30
0.0
  3
*D18
  1
*D18
  0
LINE
  5
CA3
330
CA2
100
AcDbEntity
  8
0
 62
     0
370
    -2
100
AcDbLine
 10
-105.6815008291058
 20
-13.17840591678897
 30
0.0
 11
-153.7482491138524
 21
-19.17229429864335
 31
0.0
  0
LINE
  5
CA4
330
CA2
100
AcDbEntity
  8
0
 62
     0
370
    -2
100
AcDbLine
 10
-18.29672286708262
 20
-104.9165379352804
 30
0.0
 11
-26.61855748892415
 21
-152.6353608160895
 31
0.0
  0
ARC
  5
CA5
330
CA2
100
AcDbEntity
  8
0
 62
     0
370
    -2
100
AcDbCircle
 10
0.0
 20
0.0
 30
0.0
 40
142.9390234067874
100
AcDbArc
 50
193.1234231405431
 51
216.7897405713612
  0
ARC
  5
CA6
330
CA2
100
AcDbEntity
  8
0
 62
     0
370
    -2
100
AcDbCircle
 10
0.0
 20
0.0
 30
0.0
 40
142.9390234067874
100
AcDbArc
 50
226.4528807042301
 51
254.0921231962443
  0
SOLID
  5
CA7
330
CA2
100
AcDbEntity
  8
0
 62
     0
100
AcDbTrace
 10
-141.6670550174077
 20
-32.89332094871519
 30
0.0
 11
-136.7447801314376
 21
-32.01513534934114
 31
0.0
 12
-141.8404743725447
 22
-17.68740349111783
 32
0.0
 13
-141.8404743725447
 23
-17.68740349111783
 33
0.0
  0
SOLID
  5
CA8
330
CA2
100
AcDbEntity
  8
0
 62
     0
100
AcDbTrace
 10
-38.62022831550128
 20
-135.0280776338402
 30
0.0
 11
-39.73649508605409
 21
-139.9018798966489
 31
0.0
 12
-24.55695491235146
 22
-140.813779076903
 32
0.0
 13
-24.55695491235146
 23
-140.813779076903
 33
0.0
  0
MTEXT
  5
CA9
330
CA2
100
AcDbEntity
  8
0
 62
     0
100
AcDbMText
 10
-107.1530221432938
 20
-94.60335225585246
 30
0.0
 40
10.0
 41
0.0
 71
     5
 72
     1
  1
\A1;73°
 73
     1
 44
1.0
  0
POINT
  5
CAA
330
CA2
100
AcDbEntity
  8
DEFPOINTS
 62
     0
100
AcDbPoint
 10
0.0
 20
0.0
 30
0.0
  0
POINT
  5
CAB
330
CA2
100
AcDbEntity
  8
DEFPOINTS
 62
     0
100
AcDbPoint
 10
-100.7199280202276
 20
-12.55970141365334
 30
0.0
  0
POINT
  5
CAC
330
CA2
100
AcDbEntity
  8
DEFPOINTS
 62
     0
100
AcDbPoint
 10
-17.43772179351066
 20
-99.99087887728598
 30
0.0
  0
POINT
  5
CAD
330
CA2
100
AcDbEntity
  8
DEFPOINTS
 62
     0
100
AcDbPoint
 10
-80.39657153018564
 20
-118.1861061998315
 30
0.0
  0
ENDBLK
  5
CAF
330
CA2
100
AcDbEntity
  8
0
100
AcDbBlockEnd
  0
BLOCK
  5
CBD
330
CB1
100
AcDbEntity
  8
0
100
AcDbBlockBegin
  2
*D19
 70
     1
 10
0.0
 20
0.0
 30
0.0
  3
*D19
  1
*D19
  0
LINE
  5
CB2
330
CB1
100
AcDbEntity
  8
0
 62
     0
370
    -2
100
AcDbLine
 10
-18.29672286708252
 20
-104.9165379352803
 30
0.0
 11
-26.58893184937441
 21
-152.4654823324817
 31
0.0
  0
LINE
  5
CB3
330
CB1
100
AcDbEntity
  8
0
 62
     0
370
    -2
100
AcDbLine
 10
327.537109352981
 20
-104.9165379352804
 30
0.0
 11
335.8293183352729
 21
-152.4654823324817
 31
0.0
  0
ARC
  5
CB4
330
CB1
100
AcDbEntity
  8
0
 62
     0
370
    -2
100
AcDbCircle
 10
154.6201932429494
 20
886.618630438991
 30
0.0
 40
1042.766581017243
100
AcDbArc
 50
260.9316921925309
 51
268.1243999518971
  0
ARC
  5
CB5
330
CB1
100
AcDbEntity
  8
0
 62
     0
370
    -2
100
AcDbCircle
 10
154.6201932429494
 20
886.618630438991
 30
0.0
 40
1042.766581017243
100
AcDbArc
 50
269.7547967580324
 51
279.0683078074691
  0
SOLID
  5
CB6
330
CB1
100
AcDbEntity
  8
0
 62
     0
100
AcDbTrace
 10
-10.1439752225363
 20
-145.5804101156918
 30
0.0
 11
-9.320423704476028
 21
-140.6487001792599
 31
0.0
 12
-24.52732927280171
 22
-140.6439005932951
 32
0.0
 13
-24.52732927280171
 23
-140.6439005932951
 33
0.0
  0
SOLID
  5
CB7
330
CB1
100
AcDbEntity
  8
0
 62
     0
100
AcDbTrace
 10
318.5608101903745
 20
-140.64870017926
 30
0.0
 11
319.3843617084348
 21
-145.5804101156918
 31
0.0
 12
333.7677157587002
 22
-140.6439005932951
 32
0.0
 13
333.7677157587002
 23
-140.6439005932951
 33
0.0
  0
MTEXT
  5
CB8
330
CB1
100
AcDbEntity
  8
0
 62
     0
100
AcDbMText
 10
135.3242455955914
 20
-155.9694036812845
 30
0.0
 40
10.0
 41
0.0
 71
     5
 72
     1
  1
\A1;20°
 73
     1
 44
1.0
  0
POINT
  5
CB9
330
CB1
100
AcDbEntity
  8
DEFPOINTS
 62
     0
100
AcDbPoint
 10
154.6201932429494
 20
886.6186304389911
 30
0.0
  0
POINT
  5
CBA
330
CB1
100
AcDbEntity
  8
DEFPOINTS
 62
     0
100
AcDbPoint
 10
-17.43772179351058
 20
-99.99087887728592
 30
0.0
  0
POINT
  5
CBB
330
CB1
100
AcDbEntity
  8
DEFPOINTS
 62
     0
100
AcDbPoint
 10
326.6781082794091
 20
-99.99087887728604
 30
0.0
  0
POINT
  5
CBC
330
CB1
100
AcDbEntity
  8
DEFPOINTS
 62
     0
100
AcDbPoint
 10
214.6006363341354
 20
-154.4214691407395
 30
0.0
  0
ENDBLK
  5
CBE
330
CB1
100
AcDbEntity
  8
0
100
AcDbBlockEnd
  0
BLOCK
  5
CCC
330
CC0
100
AcDbEntity
  8
0
100
AcDbBlockBegin
  2
*D20
 70
     1
 10
0.0
 20
0.0
 30
0.0
  3
*D20
  1
*D20
  0
LINE
  5
CC1
330
CC0
100
AcDbEntity
  8
0
 62
     0
370
    -2
100
AcDbLine
 10
-105.6815008291057
 20
186.4156667947726
 30
0.0
 11
-154.719890595181
 21
192.5307181592314
 31
0.0
  0
LINE
  5
CC2
330
CC0
100
AcDbEntity
  8
0
 62
     0
370
    -2
100
AcDbLine
 10
-105.6815008291057
 20
-13.17840591678824
 30
0.0
 11
-154.719890595181
 21
-19.29345728124701
 31
0.0
  0
ARC
  5
CC3
330
CC0
100
AcDbEntity
  8
0
 62
     0
370
    -2
100
AcDbCircle
 10
694.6201932429428
 20
86.61863043899208
 30
0.0
 40
843.918190214118
100
AcDbArc
 50
173.910351840096
 51
180.5648922333773
  0
ARC
  5
CC4
330
CC0
100
AcDbEntity
  8
0
 62
     0
370
    -2
100
AcDbCircle
 10
694.6201932429428
 20
86.61863043899208
 30
0.0
 40
843.918190214118
100
AcDbArc
 50
181.7872392636042
 51
186.089648159904
  0
SOLID
  5
CC5
330
CC0
100
AcDbEntity
  8
0
 62
     0
100
AcDbTrace
 10
-147.0193115085201
 20
176.4324942369268
 30
0.0
 11
-142.0524361386106
 21
175.8579082470294
 31
0.0
 12
-142.8121158538732
 22
191.0458273517066
 32
0.0
 13
-142.8121158538732
 23
191.0458273517066
 33
0.0
  0
SOLID
  5
CC6
330
CC0
100
AcDbEntity
  8
0
 62
     0
100
AcDbTrace
 10
-142.0524361386107
 20
-2.620647369044268
 30
0.0
 11
-147.0193115085202
 21
-3.195233358941652
 31
0.0
 12
-142.8121158538733
 22
-17.80856647372146
 32
0.0
 13
-142.8121158538733
 23
-17.80856647372146
 33
0.0
  0
MTEXT
  5
CC7
330
CC0
100
AcDbEntity
  8
0
 62
     0
100
AcDbMText
 10
-149.1202412364949
 20
69.29838220977093
 30
0.0
 40
10.0
 41
0.0
 71
     5
 72
     1
  1
\A1;14°
 73
     1
 44
1.0
  0
POINT
  5
CC8
330
CC0
100
AcDbEntity
  8
DEFPOINTS
 62
     0
100
AcDbPoint
 10
694.6201932429428
 20
86.61863043899208
 30
0.0
  0
POINT
  5
CC9
330
CC0
100
AcDbEntity
  8
DEFPOINTS
 62
     0
100
AcDbPoint
 10
-100.7199280202275
 20
185.796962291637
 30
0.0
  0
POINT
  5
CCA
330
CC0
100
AcDbEntity
  8
DEFPOINTS
 62
     0
100
AcDbPoint
 10
-100.7199280202275
 20
-12.55970141365259
 30
0.0
  0
POINT
  5
CCB
330
CC0
100
AcDbEntity
  8
DEFPOINTS
 62
     0
100
AcDbPoint
 10
-148.5765213506927
 20
121.507199810224
 30
0.0
  0
ENDBLK
  5
CCD
330
CC0
100
AcDbEntity
  8
0
100
AcDbBlockEnd
  0
ENDSEC
  0
SECTION
  2
ENTITIES
  0
ARC
  5
411
330
2
100
AcDbEntity
  8
0
  6
Continuous
100
AcDbCircle
 10
309.2403864858989
 20
0.0
 30
0.0
 40
101.5000000000002
100
AcDbArc
 50
279.8925038628382
 51
352.8919498003735
  0
ARC
  5
412
330
2
100
AcDbEntity
  8
0
  6
Continuous
100
AcDbCircle
 10
0.0
 20
0.0
 30
0.0
 40
101.4999999999998
100
AcDbArc
 50
187.1080501996257
 51
260.1074961371618
  0
ARC
  5
75F
330
2
100
AcDbEntity
  8
0
  6
Continuous
100
AcDbCircle
 10
154.6201932429494
 20
886.6186304389912
 30
0.0
 40
1001.499999999999
100
AcDbArc
 50
260.1074961371619
 51
279.8925038628381
  0
ARC
  5
97A
330
2
100
AcDbEntity
  8
0
  6
Continuous
100
AcDbCircle
 10
154.6201932429503
 20
-713.3813695610106
 30
0.0
 40
1001.500000000002
100
AcDbArc
 50
80.10749613716187
 51
99.89250386283811
  0
ARC
  5
9B0
330
2
100
AcDbEntity
  8
0
  6
Continuous
100
AcDbCircle
 10
0.0
 20
173.2372608779824
 30
0.0
 40
101.5000000000002
100
AcDbArc
 50
99.89250386283823
 51
172.8919498003741
  0
ARC
  5
9B1
330
2
100
AcDbEntity
  8
0
  6
Continuous
100
AcDbCircle
 10
694.6201932429431
 20
86.61863043899211
 30
0.0
 40
801.4999999999926
100
AcDbArc
 50
172.8919498003741
 51
187.1080501996259
  0
POINT
  5
9C0
330
2
100
AcDbEntity
  8
0
  6
ByBlock
 48
50.0
100
AcDbPoint
 10
-105.455897719934
 20
38.86406343694762
 30
0.0
  0
POINT
  5
9C1
330
2
100
AcDbEntity
  8
0
  6
ByBlock
 48
50.0
100
AcDbPoint
 10
-105.3239260421815
 20
136.5351209119199
 30
0.0
  0
ARC
  5
9C3
330
2
100
AcDbEntity
  8
0
  6
Continuous
100
AcDbCircle
 10
309.2403864859007
 20
173.2372608779824
 30
0.0
 40
101.4999999999997
100
AcDbArc
 50
7.108050199625381
 51
80.10749613716175
  0
ARC
  5
9C8
330
2
100
AcDbEntity
  8
0
  6
Continuous
100
AcDbCircle
 10
-385.3798067570642
 20
86.61863043899757
 30
0.0
 40
801.5000000000135
100
AcDbArc
 50
352.8919498003738
 51
7.108050199625204
  0
POINT
  5
9C9
330
2
100
AcDbEntity
  8
0
  6
ByBlock
 48
50.0
100
AcDbPoint
 10
90.38119039067988
 20
286.0562725720793
 30
0.0
  0
POINT
  5
9CA
330
2
100
AcDbEntity
  8
0
  6
ByBlock
 48
50.0
100
AcDbPoint
 10
235.3312613468397
 20
284.861072677113
 30
0.0
  0
DIMENSION
  5
B9A
330
2
100
AcDbEntity
  8
0
100
AcDbDimension
  2
*D0
 10
416.1201932429493
 20
404.3159815995376
 30
0.0
 11
155.8044964732298
 21
404.3159815995376
 31
0.0
 70
   160
 71
     5
 42
522.9999999999989
  3
STANDARD
100
AcDbAlignedDimension
 13
-106.8798067570496
 23
86.61863043899221
 33
0.0
 14
416.1201932429493
 24
86.61863043899025
 34
0.0
100
AcDbRotatedDimension
1001
ACAD
1000
DSTYLE
1002
{
1070
    41
1040
15.0
1070
    42
1040
5.0
1070
    44
1040
12.0
1070
    78
1070
     8
1070
   140
1040
10.0
1070
   141
1040
2.0
1070
   147
1040
4.0
1070
   172
1070
     1
1070
   271
1070
     3
1070
   288
1070
     1
1002
}
  0
DIMENSION
  5
BA8
330
2
100
AcDbEntity
  8
0
100
AcDbDimension
  2
*D1
 10
567.52341879344
 20
-114.8813695610084
 30
0.0
 11
567.52341879344
 21
90.13215352417706
 31
0.0
 70
   160
 71
     5
 42
402.9999999999998
  3
STANDARD
100
AcDbAlignedDimension
 13
154.6201932429504
 23
288.1186304389915
 33
0.0
 14
154.6201932429493
 24
-114.8813695610082
 34
0.0
 50
90.0
100
AcDbRotatedDimension
1001
ACAD
1000
DSTYLE
1002
{
1070
    41
1040
15.0
1070
    42
1040
5.0
1070
    44
1040
12.0
1070
    78
1070
     8
1070
   140
1040
10.0
1070
   141
1040
2.0
1070
   147
1040
4.0
1070
   172
1070
     1
1070
   271
1070
     3
1070
   288
1070
     1
1002
}
  0
DIMENSION
  5
BB6
330
2
100
AcDbEntity
  8
0
100
AcDbDimension
  2
*D2
 10
495.7119801998863
 20
-0.0000000000000528
 30
0.0
 11
495.7119801998863
 21
78.1708405340537
 31
0.0
 70
   160
 71
     5
 42
173.2372608779824
  3
STANDARD
100
AcDbAlignedDimension
 13
309.2403864859007
 23
173.2372608779824
 33
0.0
 14
309.2403864858989
 24
0.0
 34
0.0
 50
90.0
100
AcDbRotatedDimension
1001
ACAD
1000
DSTYLE
1002
{
1070
    41
1040
15.0
1070
    42
1040
5.0
1070
    44
1040
12.0
1070
    78
1070
     8
1070
   140
1040
10.0
1070
   141
1040
2.0
1070
   147
1040
4.0
1070
   172
1070
     1
1070
   271
1070
     1
1070
   288
1070
     1
1002
}
  0
DIMENSION
  5
BE6
330
2
100
AcDbEntity
  8
0
100
AcDbDimension
  2
*D4
 10
0.0000000000000107
 20
348.6783727430303
 30
0.0
 11
134.9973257158563
 21
348.6783727430303
 31
0.0
 70
   160
 71
     5
 42
309.2403864859007
  3
STANDARD
100
AcDbAlignedDimension
 13
309.2403864859007
 23
173.2372608779824
 33
0.0
 14
0.0
 24
173.2372608779824
 34
0.0
100
AcDbRotatedDimension
1001
ACAD
1000
DSTYLE
1002
{
1070
    41
1040
15.0
1070
    42
1040
5.0
1070
    44
1040
12.0
1070
    78
1070
     8
1070
   140
1040
10.0
1070
   141
1040
2.0
1070
   147
1040
4.0
1070
   172
1070
     1
1070
   271
1070
     1
1070
   288
1070
     1
1002
}
  0
DIMENSION
  5
C02
330
2
100
AcDbEntity
  8
0
100
AcDbDimension
  2
*D6
 10
-0.0000000000000142
 20
173.2372608779827
 30
0.0
 11
23.47748632195551
 21
148.0339577185686
 31
0.0
 70
   164
  1
101.5 Typ 4 Places
 71
     5
 42
101.4999999999999
  3
STANDARD
100
AcDbRadialDimension
 15
-69.1834601635838
 25
247.5063583532703
 35
0.0
 40
0.0
1001
ACAD
1000
DSTYLE
1002
{
1070
    41
1040
15.0
1070
    42
1040
5.0
1070
    44
1040
12.0
1070
    78
1070
     8
1070
   140
1040
10.0
1070
   141
1040
2.0
1070
   147
1040
4.0
1070
   172
1070
     1
1070
   271
1070
     3
1070
   279
1070
     1
1070
   288
1070
     1
1002
}
  0
DIMENSION
  5
C33
330
2
100
AcDbEntity
  8
0
100
AcDbDimension
  2
*D10
 10
154.6201932429504
 20
-713.3813695610103
 30
0.0
 11
192.4853725969308
 21
189.4021303152376
 31
0.0
 70
   164
  1
1001.5 Typ 2 Places
 71
     5
 42
1001.500000000002
  3
STANDARD
100
AcDbRadialDimension
 15
84.20182657033779
 25
285.6399033031691
 35
0.0
 40
0.0
1001
ACAD
1000
DSTYLE
1002
{
1070
    41
1040
15.0
1070
    42
1040
5.0
1070
    44
1040
12.0
1070
    78
1070
     8
1070
   140
1040
10.0
1070
   141
1040
2.0
1070
   147
1040
4.0
1070
   172
1070
     1
1070
   271
1070
     3
1070
   288
1070
     1
1002
}
  0
DIMENSION
  5
C3D
330
2
100
AcDbEntity
  8
0
100
AcDbDimension
  2
*D11
 10
-385.3798067570643
 20
86.61863043899753
 30
0.0
 11
212.2039122613484
 21
66.27362506642463
 31
0.0
 70
   164
  1
801.5 Typ 2 Places
 71
     5
 42
801.5000000000136
  3
STANDARD
100
AcDbRadialDimension
 15
415.6560903291497
 25
59.34700453758865
 35
0.0
 40
0.0
1001
ACAD
1000
DSTYLE
1002
{
1070
    41
1040
15.0
1070
    42
1040
5.0
1070
    44
1040
12.0
1070
    78
1070
     8
1070
   140
1040
10.0
1070
   141
1040
2.0
1070
   147
1040
4.0
1070
   172
1070
     1
1070
   271
1070
     3
1070
   288
1070
     1
1002
}
  0
DIMENSION
  5
CA1
330
2
100
AcDbEntity
  8
0
100
AcDbDimension
  2
*D18
 10
-80.39657153018564
 20
-118.1861061998315
 30
0.0
 11
-107.1530221432938
 21
-94.60335225585241
 31
0.0
 70
   165
 71
     5
 42
1.274080683741604
  3
STANDARD
100
AcDb3PointAngularDimension
 13
-100.7199280202276
 23
-12.55970141365334
 33
0.0
 14
-17.43772179351066
 24
-99.990878877286
 34
0.0
 15
0.0
 25
0.0
 35
0.0
1001
ACAD
1000
DSTYLE
1002
{
1070
    41
1040
15.0
1070
    42
1040
5.0
1070
    44
1040
12.0
1070
    78
1070
     8
1070
   140
1040
10.0
1070
   141
1040
2.0
1070
   147
1040
4.0
1070
   172
1070
     1
1070
   271
1070
     3
1070
   288
1070
     1
1002
}
  0
DIMENSION
  5
CB0
330
2
100
AcDbEntity
  8
0
100
AcDbDimension
  2
*D19
 10
214.6006363341354
 20
-154.4214691407395
 30
0.0
 11
135.3242455955915
 21
-155.9694036812845
 31
0.0
 70
   165
 71
     5
 42
0.3453135273455636
  3
STANDARD
100
AcDb3PointAngularDimension
 13
-17.43772179351058
 23
-99.99087887728592
 33
0.0
 14
326.6781082794091
 24
-99.99087887728604
 34
0.0
 15
154.6201932429494
 25
886.6186304389912
 35
0.0
1001
ACAD
1000
DSTYLE
1002
{
1070
    41
1040
15.0
1070
    42
1040
5.0
1070
    44
1040
12.0
1070
    78
1070
     8
1070
   140
1040
10.0
1070
   141
1040
2.0
1070
   147
1040
4.0
1070
   172
1070
     1
1070
   271
1070
     3
1070
   288
1070
     1
1002
}
  0
DIMENSION
  5
CBF
330
2
100
AcDbEntity
  8
0
100
AcDbDimension
  2
*D20
 10
-148.5765213506927
 20
121.507199810224
 30
0.0
 11
-149.1202412364948
 21
69.29838220977089
 31
0.0
 70
   165
 71
     5
 42
0.2481177587610253
  3
STANDARD
100
AcDb3PointAngularDimension
 13
-100.7199280202275
 23
185.796962291637
 33
0.0
 14
-100.7199280202275
 24
-12.55970141365259
 34
0.0
 15
694.6201932429431
 25
86.61863043899211
 35
0.0
1001
ACAD
1000
DSTYLE
1002
{
1070
    41
1040
15.0
1070
    42
1040
5.0
1070
    44
1040
12.0
1070
    78
1070
     8
1070
   140
1040
10.0
1070
   141
1040
2.0
1070
   147
1040
4.0
1070
   172
1070
     1
1070
   271
1070
     3
1070
   288
1070
     1
1002
}
  0
ENDSEC
  0
SECTION
  2
OBJECTS
  0
DICTIONARY
  5
1A
330
0
100
AcDbDictionary
281
     1
  3
ACAD_DETAILVIEWSTYLE
350
D37
  3
ACAD_GROUP
350
18
  3
ACAD_IMAGE_VARS
350
D31
  3
ACAD_LAYOUT
350
B77
  3
ACAD_MLINESTYLE
350
19
  3
ACAD_PLOTSETTINGS
350
B78
  3
ACAD_PLOTSTYLENAME
350
B73
  3
ACAD_SCALELIST
350
D08
  3
ACAD_SECTIONVIEWSTYLE
350
D38
  3
AcDbVariableDictionary
350
B84
  3
APPDATA
350
D2F
  3
DWGPROPS
350
D3A
  0
DICTIONARY
  5
D37
102
{ACAD_REACTORS
330
1A
102
}
330
1A
100
AcDbDictionary
281
     1
  0
DICTIONARY
  5
18
102
{ACAD_REACTORS
330
1A
102
}
330
1A
100
AcDbDictionary
281
     1
  0
RASTERVARIABLES
  5
D31
102
{ACAD_REACTORS
330
1A
102
}
330
1A
100
AcDbRasterVariables
 90
        0
 70
     1
 71
     1
 72
     0
  0
DICTIONARY
  5
B77
102
{ACAD_REACTORS
330
1A
102
}
330
1A
100
AcDbDictionary
281
     1
  3
Layout1
350
B7A
  3
Model
350
B79
  0
DICTIONARY
  5
19
102
{ACAD_REACTORS
330
1A
102
}
330
1A
100
AcDbDictionary
281
     1
  3
STANDARD
350
1C
  0
DICTIONARY
  5
B78
102
{ACAD_REACTORS
330
1A
102
}
330
1A
100
AcDbDictionary
281
     1
  0
ACDBDICTIONARYWDFLT
  5
B73
102
{ACAD_REACTORS
330
1A
102
}
330
1A
100
AcDbDictionary
281
     1
  3
Normal
350
B74
100
AcDbDictionaryWithDefault
340
B74
  0
DICTIONARY
  5
D08
102
{ACAD_REACTORS
330
1A
102
}
330
1A
100
AcDbDictionary
281
     1
  3
A0
350
D09
  3
A1
350
D0A
  3
A2
350
D0B
  3
A3
350
D0C
  3
A4
350
D0D
  3
A5
350
D0E
  3
A6
350
D0F
  3
A7
350
D10
  3
A8
350
D11
  3
A9
350
D12
  3
B0
350
D13
  3
B1
350
D14
  3
B2
350
D15
  3
B3
350
D16
  3
B4
350
D17
  3
B5
350
D18
  3
B6
350
D19
  3
B7
350
D1A
  3
B8
350
D1B
  3
B9
350
D1C
  3
C0
350
D1D
  3
C1
350
D1E
  3
C2
350
D1F
  3
C3
350
D20
  3
C4
350
D21
  3
C5
350
D22
  3
C6
350
D23
  3
C7
350
D24
  3
C8
350
D25
  3
C9
350
D26
  3
D0
350
D27
  3
D1
350
D28
  3
D2
350
D29
  0
DICTIONARY
  5
D38
102
{ACAD_REACTORS
330
1A
102
}
330
1A
100
AcDbDictionary
281
     1
  0
DICTIONARY
  5
B84
102
{ACAD_REACTORS
330
1A
102
}
330
1A
100
AcDbDictionary
281
     1
  3
DIMASSOC
350
B85
  3
PROJECTNAME
350
B86
  0
DICTIONARY
  5
D2F
102
{ACAD_REACTORS
330
1A
102
}
330
1A
100
AcDbDictionary
281
     1
  0
XRECORD
  5
D3A
102
{ACAD_REACTORS
330
1A
102
}
330
1A
100
AcDbXrecord
280
     1
  1
DWGPROPS COOKIE
  2

  3

  4

  6

  7

  8
jaxton
  9

300
=
301
=
302
=
303
=
304
=
305
=
306
=
307
=
308
=
309
=
 40
0.0
 41
2451589.23472338
 42
2456985.955755683
  1

 90
        0
  0
LAYOUT
  5
B7A
102
{ACAD_REACTORS
330
B77
102
}
330
B77
100
AcDbPlotSettings
  1

  2
hp deskjet 845c
  4

  6

 40
0.0
 41
0.0
 42
0.0
 43
0.0
 44
0.0
 45
0.0
 46
0.0
 47
0.0
 48
0.0
 49
0.0
140
0.0
141
0.0
142
1.0
143
1.0
 70
   688
 72
     0
 73
     0
 74
     5
  7

 75
    16
147
1.0
148
0.0
149
0.0
100
AcDbLayout
  1
Layout1
 70
     1
 71
     1
 10
0.0
 20
0.0
 11
12.0
 21
9.0
 12
0.0
 22
0.0
 32
0.0
 14
1.000000000000000E+20
 24
1.000000000000000E+20
 34
1.000000000000000E+20
 15
-1.000000000000000E+20
 25
-1.000000000000000E+20
 35
-1.000000000000000E+20
146
0.0
 13
0.0
 23
0.0
 33
0.0
 16
1.0
 26
0.0
 36
0.0
 17
0.0
 27
1.0
 37
0.0
 76
     0
330
8
  0
LAYOUT
  5
B79
102
{ACAD_REACTORS
330
B77
102
}
330
B77
100
AcDbPlotSettings
  1

  2
hp deskjet 845c
  4

  6

 40
0.0
 41
0.0
 42
0.0
 43
0.0
 44
0.0
 45
0.0
 46
0.0
 47
0.0
 48
0.0
 49
0.0
140
0.0
141
0.0
142
1.0
143
1.0
 70
  1712
 72
     0
 73
     0
 74
     0
  7

 75
     0
147
1.0
148
0.0
149
0.0
100
AcDbLayout
  1
Model
 70
     1
 71
     0
 10
0.0
 20
0.0
 11
12.0
 21
9.0
 12
0.0
 22
0.0
 32
0.0
 14
0.0
 24
0.0
 34
0.0
 15
0.0
 25
0.0
 35
0.0
146
0.0
 13
0.0
 23
0.0
 33
0.0
 16
1.0
 26
0.0
 36
0.0
 17
0.0
 27
1.0
 37
0.0
 76
     0
330
2
331
CEE
  0
MLINESTYLE
  5
1C
102
{ACAD_REACTORS
330
19
102
}
330
19
100
AcDbMlineStyle
  2
STANDARD
 70
     0
  3

 62
     0
 51
90.0
 52
90.0
 71
     2
 49
0.5
 62
   256
  6
BYLAYER
 49
-0.5
 62
   256
  6
BYLAYER
  0
ACDBPLACEHOLDER
  5
B74
102
{ACAD_REACTORS
330
B73
102
}
330
B73
  0
SCALE
  5
D09
102
{ACAD_REACTORS
330
D08
102
}
330
D08
100
AcDbScale
 70
     0
300
1:1
140
1.0
141
1.0
290
     1
  0
SCALE
  5
D0A
102
{ACAD_REACTORS
330
D08
102
}
330
D08
100
AcDbScale
 70
     0
300
1:2
140
1.0
141
2.0
290
     0
  0
SCALE
  5
D0B
102
{ACAD_REACTORS
330
D08
102
}
330
D08
100
AcDbScale
 70
     0
300
1:4
140
1.0
141
4.0
290
     0
  0
SCALE
  5
D0C
102
{ACAD_REACTORS
330
D08
102
}
330
D08
100
AcDbScale
 70
     0
300
1:5
140
1.0
141
5.0
290
     0
  0
SCALE
  5
D0D
102
{ACAD_REACTORS
330
D08
102
}
330
D08
100
AcDbScale
 70
     0
300
1:8
140
1.0
141
8.0
290
     0
  0
SCALE
  5
D0E
102
{ACAD_REACTORS
330
D08
102
}
330
D08
100
AcDbScale
 70
     0
300
1:10
140
1.0
141
10.0
290
     0
  0
SCALE
  5
D0F
102
{ACAD_REACTORS
330
D08
102
}
330
D08
100
AcDbScale
 70
     0
300
1:16
140
1.0
141
16.0
290
     0
  0
SCALE
  5
D10
102
{ACAD_REACTORS
330
D08
102
}
330
D08
100
AcDbScale
 70
     0
300
1:20
140
1.0
141
20.0
290
     0
  0
SCALE
  5
D11
102
{ACAD_REACTORS
330
D08
102
}
330
D08
100
AcDbScale
 70
     0
300
1:30
140
1.0
141
30.0
290
     0
  0
SCALE
  5
D12
102
{ACAD_REACTORS
330
D08
102
}
330
D08
100
AcDbScale
 70
     0
300
1:40
140
1.0
141
40.0
290
     0
  0
SCALE
  5
D13
102
{ACAD_REACTORS
330
D08
102
}
330
D08
100
AcDbScale
 70
     0
300
1:50
140
1.0
141
50.0
290
     0
  0
SCALE
  5
D14
102
{ACAD_REACTORS
330
D08
102
}
330
D08
100
AcDbScale
 70
     0
300
1:100
140
1.0
141
100.0
290
     0
  0
SCALE
  5
D15
102
{ACAD_REACTORS
330
D08
102
}
330
D08
100
AcDbScale
 70
     0
300
2:1
140
2.0
141
1.0
290
     0
  0
SCALE
  5
D16
102
{ACAD_REACTORS
330
D08
102
}
330
D08
100
AcDbScale
 70
     0
300
4:1
140
4.0
141
1.0
290
     0
  0
SCALE
  5
D17
102
{ACAD_REACTORS
330
D08
102
}
330
D08
100
AcDbScale
 70
     0
300
8:1
140
8.0
141
1.0
290
     0
  0
SCALE
  5
D18
102
{ACAD_REACTORS
330
D08
102
}
330
D08
100
AcDbScale
 70
     0
300
10:1
140
10.0
141
1.0
290
     0
  0
SCALE
  5
D19
102
{ACAD_REACTORS
330
D08
102
}
330
D08
100
AcDbScale
 70
     0
300
100:1
140
100.0
141
1.0
290
     0
  0
SCALE
  5
D1A
102
{ACAD_REACTORS
330
D08
102
}
330
D08
100
AcDbScale
 70
     0
300
1/128" = 1'-0"
140
0.0078125
141
12.0
290
     0
  0
SCALE
  5
D1B
102
{ACAD_REACTORS
330
D08
102
}
330
D08
100
AcDbScale
 70
     0
300
1/64" = 1'-0"
140
0.015625
141
12.0
290
     0
  0
SCALE
  5
D1C
102
{ACAD_REACTORS
330
D08
102
}
330
D08
100
AcDbScale
 70
     0
300
1/32" = 1'-0"
140
0.03125
141
12.0
290
     0
  0
SCALE
  5
D1D
102
{ACAD_REACTORS
330
D08
102
}
330
D08
100
AcDbScale
 70
     0
300
1/16" = 1'-0"
140
0.0625
141
12.0
290
     0
  0
SCALE
  5
D1E
102
{ACAD_REACTORS
330
D08
102
}
330
D08
100
AcDbScale
 70
     0
300
3/32" = 1'-0"
140
0.09375
141
12.0
290
     0
  0
SCALE
  5
D1F
102
{ACAD_REACTORS
330
D08
102
}
330
D08
100
AcDbScale
 70
     0
300
1/8" = 1'-0"
140
0.125
141
12.0
290
     0
  0
SCALE
  5
D20
102
{ACAD_REACTORS
330
D08
102
}
330
D08
100
AcDbScale
 70
     0
300
3/16" = 1'-0"
140
0.1875
141
12.0
290
     0
  0
SCALE
  5
D21
102
{ACAD_REACTORS
330
D08
102
}
330
D08
100
AcDbScale
 70
     0
300
1/4" = 1'-0"
140
0.25
141
12.0
290
     0
  0
SCALE
  5
D22
102
{ACAD_REACTORS
330
D08
102
}
330
D08
100
AcDbScale
 70
     0
300
3/8" = 1'-0"
140
0.375
141
12.0
290
     0
  0
SCALE
  5
D23
102
{ACAD_REACTORS
330
D08
102
}
330
D08
100
AcDbScale
 70
     0
300
1/2" = 1'-0"
140
0.5
141
12.0
290
     0
  0
SCALE
  5
D24
102
{ACAD_REACTORS
330
D08
102
}
330
D08
100
AcDbScale
 70
     0
300
3/4" = 1'-0"
140
0.75
141
12.0
290
     0
  0
SCALE
  5
D25
102
{ACAD_REACTORS
330
D08
102
}
330
D08
100
AcDbScale
 70
     0
300
1" = 1'-0"
140
1.0
141
12.0
290
     0
  0
SCALE
  5
D26
102
{ACAD_REACTORS
330
D08
102
}
330
D08
100
AcDbScale
 70
     0
300
1-1/2" = 1'-0"
140
1.5
141
12.0
290
     0
  0
SCALE
  5
D27
102
{ACAD_REACTORS
330
D08
102
}
330
D08
100
AcDbScale
 70
     0
300
3" = 1'-0"
140
3.0
141
12.0
290
     0
  0
SCALE
  5
D28
102
{ACAD_REACTORS
330
D08
102
}
330
D08
100
AcDbScale
 70
     0
300
6" = 1'-0"
140
6.0
141
12.0
290
     0
  0
SCALE
  5
D29
102
{ACAD_REACTORS
330
D08
102
}
330
D08
100
AcDbScale
 70
     0
300
1'-0" = 1'-0"
140
12.0
141
12.0
290
     0
  0
DICTIONARYVAR
  5
B85
102
{ACAD_REACTORS
330
B84
102
}
330
B84
100
DictionaryVariables
280
     0
  1
1
  0
DICTIONARYVAR
  5
B86
102
{ACAD_REACTORS
330
B84
102
}
330
B84
100
DictionaryVariables
280
     0
  1

  0
ENDSEC
  0
EOF
