  0
SECTION
  2
HEADER
  9
$ACADVER
  1
AC1015
  9
$ACADMAINTVER
 70
    20
  9
$DWGCODEPAGE
  3
ANSI_1252
  9
$INSBASE
 10
0.0
 20
0.0
 30
0.0
  9
$EXTMIN
 10
277.9340171793299
 20
131.2435031721414
 30
0.0
  9
$EXTMAX
 10
1836.77928028324
 20
1191.995301227055
 30
0.0
  9
$LIMMIN
 10
0.0
 20
0.0
  9
$LIMMAX
 10
12.0
 20
9.0
  9
$ORTHOMODE
 70
     0
  9
$REGENMODE
 70
     1
  9
$FILLMODE
 70
     1
  9
$QTEXTMODE
 70
     0
  9
$MIRRTEXT
 70
     0
  9
$LTSCALE
 40
1.0
  9
$ATTMODE
 70
     1
  9
$TEXTSIZE
 40
0.2
  9
$TRACEWID
 40
0.05
  9
$TEXTSTYLE
  7
Standard
  9
$CLAYER
  8
0
  9
$CELTYPE
  6
ByLayer
  9
$CECOLOR
 62
   256
  9
$CELTSCALE
 40
1.0
  9
$DISPSILH
 70
     0
  9
$DIMSCALE
 40
1.0
  9
$DIMASZ
 40
0.18
  9
$DIMEXO
 40
0.0625
  9
$DIMDLI
 40
0.38
  9
$DIMRND
 40
0.0
  9
$DIMDLE
 40
0.0
  9
$DIMEXE
 40
0.18
  9
$DIMTP
 40
0.0
  9
$DIMTM
 40
0.0
  9
$DIMTXT
 40
0.18
  9
$DIMCEN
 40
0.09
  9
$DIMTSZ
 40
0.0
  9
$DIMTOL
 70
     0
  9
$DIMLIM
 70
     0
  9
$DIMTIH
 70
     1
  9
$DIMTOH
 70
     1
  9
$DIMSE1
 70
     0
  9
$DIMSE2
 70
     0
  9
$DIMTAD
 70
     0
  9
$DIMZIN
 70
     0
  9
$DIMBLK
  1

  9
$DIMASO
 70
     1
  9
$DIMSHO
 70
     1
  9
$DIMPOST
  1

  9
$DIMAPOST
  1

  9
$DIMALT
 70
     0
  9
$DIMALTD
 70
     2
  9
$DIMALTF
 40
25.4
  9
$DIMLFAC
 40
1.0
  9
$DIMTOFL
 70
     0
  9
$DIMTVP
 40
0.0
  9
$DIMTIX
 70
     0
  9
$DIMSOXD
 70
     0
  9
$DIMSAH
 70
     0
  9
$DIMBLK1
  1

  9
$DIMBLK2
  1

  9
$DIMSTYLE
  2
Standard
  9
$DIMCLRD
 70
     0
  9
$DIMCLRE
 70
     0
  9
$DIMCLRT
 70
     0
  9
$DIMTFAC
 40
1.0
  9
$DIMGAP
 40
0.09
  9
$DIMJUST
 70
     0
  9
$DIMSD1
 70
     0
  9
$DIMSD2
 70
     0
  9
$DIMTOLJ
 70
     1
  9
$DIMTZIN
 70
     0
  9
$DIMALTZ
 70
     0
  9
$DIMALTTZ
 70
     0
  9
$DIMUPT
 70
     0
  9
$DIMDEC
 70
     4
  9
$DIMTDEC
 70
     4
  9
$DIMALTU
 70
     2
  9
$DIMALTTD
 70
     2
  9
$DIMTXSTY
  7
Standard
  9
$DIMAUNIT
 70
     0
  9
$DIMADEC
 70
     0
  9
$DIMALTRND
 40
0.0
  9
$DIMAZIN
 70
     0
  9
$DIMDSEP
 70
    46
  9
$DIMATFIT
 70
     3
  9
$DIMFRAC
 70
     0
  9
$DIMLDRBLK
  1

  9
$DIMLUNIT
 70
     2
  9
$DIMLWD
 70
    -2
  9
$DIMLWE
 70
    -2
  9
$DIMTMOVE
 70
     0
  9
$LUNITS
 70
     2
  9
$LUPREC
 70
     4
  9
$SKETCHINC
 40
0.1
  9
$FILLETRAD
 40
0.0
  9
$AUNITS
 70
     0
  9
$AUPREC
 70
     0
  9
$MENU
  1
.
  9
$ELEVATION
 40
0.0
  9
$PELEVATION
 40
0.0
  9
$THICKNESS
 40
0.0
  9
$LIMCHECK
 70
     0
  9
$CHAMFERA
 40
0.0
  9
$CHAMFERB
 40
0.0
  9
$CHAMFERC
 40
0.0
  9
$CHAMFERD
 40
0.0
  9
$SKPOLY
 70
     0
  9
$TDCREATE
 40
2455377.415180058
  9
$TDUCREATE
 40
2455376.977680058
  9
$TDUPDATE
 40
2455531.456071968
  9
$TDUUPDATE
 40
2455531.018571968
  9
$TDINDWG
 40
0.0032755093
  9
$TDUSRTIMER
 40
0.0032755093
  9
$USRTIMER
 70
     1
  9
$ANGBASE
 50
0.0
  9
$ANGDIR
 70
     0
  9
$PDMODE
 70
     0
  9
$PDSIZE
 40
0.0
  9
$PLINEWID
 40
0.0
  9
$SPLFRAME
 70
     0
  9
$SPLINETYPE
 70
     6
  9
$SPLINESEGS
 70
     8
  9
$HANDSEED
  5
226
  9
$SURFTAB1
 70
     6
  9
$SURFTAB2
 70
     6
  9
$SURFTYPE
 70
     6
  9
$SURFU
 70
     6
  9
$SURFV
 70
     6
  9
$UCSBASE
  2

  9
$UCSNAME
  2

  9
$UCSORG
 10
0.0
 20
0.0
 30
0.0
  9
$UCSXDIR
 10
1.0
 20
0.0
 30
0.0
  9
$UCSYDIR
 10
0.0
 20
1.0
 30
0.0
  9
$UCSORTHOREF
  2

  9
$UCSORTHOVIEW
 70
     0
  9
$UCSORGTOP
 10
0.0
 20
0.0
 30
0.0
  9
$UCSORGBOTTOM
 10
0.0
 20
0.0
 30
0.0
  9
$UCSORGLEFT
 10
0.0
 20
0.0
 30
0.0
  9
$UCSORGRIGHT
 10
0.0
 20
0.0
 30
0.0
  9
$UCSORGFRONT
 10
0.0
 20
0.0
 30
0.0
  9
$UCSORGBACK
 10
0.0
 20
0.0
 30
0.0
  9
$PUCSBASE
  2

  9
$PUCSNAME
  2

  9
$PUCSORG
 10
0.0
 20
0.0
 30
0.0
  9
$PUCSXDIR
 10
1.0
 20
0.0
 30
0.0
  9
$PUCSYDIR
 10
0.0
 20
1.0
 30
0.0
  9
$PUCSORTHOREF
  2

  9
$PUCSORTHOVIEW
 70
     0
  9
$PUCSORGTOP
 10
0.0
 20
0.0
 30
0.0
  9
$PUCSORGBOTTOM
 10
0.0
 20
0.0
 30
0.0
  9
$PUCSORGLEFT
 10
0.0
 20
0.0
 30
0.0
  9
$PUCSORGRIGHT
 10
0.0
 20
0.0
 30
0.0
  9
$PUCSORGFRONT
 10
0.0
 20
0.0
 30
0.0
  9
$PUCSORGBACK
 10
0.0
 20
0.0
 30
0.0
  9
$USERI1
 70
     0
  9
$USERI2
 70
     0
  9
$USERI3
 70
     0
  9
$USERI4
 70
     0
  9
$USERI5
 70
     0
  9
$USERR1
 40
0.0
  9
$USERR2
 40
0.0
  9
$USERR3
 40
0.0
  9
$USERR4
 40
0.0
  9
$USERR5
 40
0.0
  9
$WORLDVIEW
 70
     1
  9
$SHADEDGE
 70
     3
  9
$SHADEDIF
 70
    70
  9
$TILEMODE
 70
     1
  9
$MAXACTVP
 70
    64
  9
$PINSBASE
 10
0.0
 20
0.0
 30
0.0
  9
$PLIMCHECK
 70
     0
  9
$PEXTMIN
 10
0.0
 20
0.0
 30
0.0
  9
$PEXTMAX
 10
0.0
 20
0.0
 30
0.0
  9
$PLIMMIN
 10
0.0
 20
0.0
  9
$PLIMMAX
 10
12.0
 20
9.0
  9
$UNITMODE
 70
     0
  9
$VISRETAIN
 70
     1
  9
$PLINEGEN
 70
     0
  9
$PSLTSCALE
 70
     1
  9
$TREEDEPTH
 70
  3020
  9
$CMLSTYLE
  2
Standard
  9
$CMLJUST
 70
     0
  9
$CMLSCALE
 40
1.0
  9
$PROXYGRAPHICS
 70
     1
  9
$MEASUREMENT
 70
     0
  9
$CELWEIGHT
370
    -1
  9
$ENDCAPS
280
     0
  9
$JOINSTYLE
280
     0
  9
$LWDISPLAY
290
     0
  9
$INSUNITS
 70
     1
  9
$HYPERLINKBASE
  1

  9
$STYLESHEET
  1

  9
$XEDIT
290
     1
  9
$CEPSNTYPE
380
     0
  9
$PSTYLEMODE
290
     1
  9
$FINGERPRINTGUID
  2
{FDEAD576-A652-11D2-9A35-0060089B3A3F}
  9
$VERSIONGUID
  2
{63256FDF-2EBE-41F6-B624-E14476CBA444}
  9
$EXTNAMES
290
     1
  9
$PSVPSCALE
 40
0.0
  9
$OLESTARTUP
290
     0
  0
ENDSEC
  0
SECTION
  2
CLASSES
  0
CLASS
  1
ACDBDICTIONARYWDFLT
  2
AcDbDictionaryWithDefault
  3
ObjectDBX Classes
 90
        0
280
     0
281
     0
  0
CLASS
  1
ACDBPLACEHOLDER
  2
AcDbPlaceHolder
  3
ObjectDBX Classes
 90
        0
280
     0
281
     0
  0
CLASS
  1
LAYOUT
  2
AcDbLayout
  3
ObjectDBX Classes
 90
        0
280
     0
281
     0
  0
CLASS
  1
DICTIONARYVAR
  2
AcDbDictionaryVar
  3
ObjectDBX Classes
 90
        0
280
     0
281
     0
  0
ENDSEC
  0
SECTION
  2
TABLES
  0
TABLE
  2
VPORT
  5
8
330
0
100
AcDbSymbolTable
 70
     4
  0
VPORT
  5
21C
330
8
100
AcDbSymbolTableRecord
100
AcDbViewportTableRecord
  2
*Active
 70
     0
 10
0.0
 20
0.0
 11
1.0
 21
1.0
 12
1432.505581079652
 22
505.4291997105576
 13
0.0
 23
0.0
 14
0.5
 24
0.5
 15
0.5
 25
0.5
 16
0.0
 26
0.0
 36
1.0
 17
0.0
 27
0.0
 37
0.0
 40
2204.293942870284
 41
1.985166872682323
 42
50.0
 43
0.0
 44
0.0
 50
0.0
 51
0.0
 71
     0
 72
  1000
 73
     1
 74
     3
 75
     0
 76
     0
 77
     0
 78
     0
281
     0
 65
     1
110
0.0
120
0.0
130
0.0
111
1.0
121
0.0
131
0.0
112
0.0
122
1.0
132
0.0
 79
     0
146
0.0
  0
ENDTAB
  0
TABLE
  2
LTYPE
  5
5
330
0
100
AcDbSymbolTable
 70
     2
  0
LTYPE
  5
14
330
5
100
AcDbSymbolTableRecord
100
AcDbLinetypeTableRecord
  2
ByBlock
 70
     0
  3

 72
    65
 73
     0
 40
0.0
  0
LTYPE
  5
15
330
5
100
AcDbSymbolTableRecord
100
AcDbLinetypeTableRecord
  2
ByLayer
 70
     0
  3

 72
    65
 73
     0
 40
0.0
  0
LTYPE
  5
16
330
5
100
AcDbSymbolTableRecord
100
AcDbLinetypeTableRecord
  2
Continuous
 70
     0
  3
Solid line
 72
    65
 73
     0
 40
0.0
  0
LTYPE
  5
B5
330
5
100
AcDbSymbolTableRecord
100
AcDbLinetypeTableRecord
  2
CENTER
 70
     0
  3
____ _ ____ _ ____ _ ____ _ ____ _ ____ _ ____ 
 72
    65
 73
     4
 40
2.0
 49
1.25
 74
     0
 49
-0.25
 74
     0
 49
0.25
 74
     0
 49
-0.25
 74
     0
  0
ENDTAB
  0
TABLE
  2
LAYER
  5
2
330
0
100
AcDbSymbolTable
 70
     3
  0
LAYER
  5
10
330
2
100
AcDbSymbolTableRecord
100
AcDbLayerTableRecord
  2
0
 70
     0
 62
     7
  6
Continuous
370
    -3
390
F
  0
LAYER
  5
B6
330
2
100
AcDbSymbolTableRecord
100
AcDbLayerTableRecord
  2
DEFPOINTS
 70
     0
 62
     7
  6
Continuous
290
     0
370
    -3
390
F
  0
LAYER
  5
B7
330
2
100
AcDbSymbolTableRecord
100
AcDbLayerTableRecord
  2
DIM
 70
     0
 62
     3
  6
Continuous
370
    -3
390
F
  0
ENDTAB
  0
TABLE
  2
STYLE
  5
3
330
0
100
AcDbSymbolTable
 70
     1
  0
STYLE
  5
11
330
3
100
AcDbSymbolTableRecord
100
AcDbTextStyleTableRecord
  2
Standard
 70
     0
 40
0.0
 41
1.0
 50
0.0
 71
     0
 42
0.2
  3
txt
  4

  0
ENDTAB
  0
TABLE
  2
VIEW
  5
6
330
0
100
AcDbSymbolTable
 70
     0
  0
ENDTAB
  0
TABLE
  2
UCS
  5
7
330
0
100
AcDbSymbolTable
 70
     0
  0
ENDTAB
  0
TABLE
  2
APPID
  5
9
330
0
100
AcDbSymbolTable
 70
     1
  0
APPID
  5
12
330
9
100
AcDbSymbolTableRecord
100
AcDbRegAppTableRecord
  2
ACAD
 70
     0
  0
ENDTAB
  0
TABLE
  2
DIMSTYLE
  5
A
330
0
100
AcDbSymbolTable
 70
     1
100
AcDbDimStyleTable
 71
     0
  0
DIMSTYLE
105
27
102
{ACAD_REACTORS
330
1B9
330
1BD
330
1C0
330
1C5
102
}
330
A
100
AcDbSymbolTableRecord
100
AcDbDimStyleTableRecord
  2
Standard
 70
     0
340
11
  0
ENDTAB
  0
TABLE
  2
BLOCK_RECORD
  5
1
330
0
100
AcDbSymbolTable
 70
    14
  0
BLOCK_RECORD
  5
1F
330
1
100
AcDbSymbolTableRecord
100
AcDbBlockTableRecord
  2
*Model_Space
340
22
  0
BLOCK_RECORD
  5
58
330
1
100
AcDbSymbolTableRecord
100
AcDbBlockTableRecord
  2
*Paper_Space
340
59
  0
BLOCK_RECORD
  5
5D
330
1
100
AcDbSymbolTableRecord
100
AcDbBlockTableRecord
  2
*Paper_Space0
340
5E
  0
BLOCK_RECORD
  5
128
330
1
100
AcDbSymbolTableRecord
100
AcDbBlockTableRecord
  2
*D1
340
0
  0
BLOCK_RECORD
  5
130
330
1
100
AcDbSymbolTableRecord
100
AcDbBlockTableRecord
  2
*D2
340
0
  0
BLOCK_RECORD
  5
139
330
1
100
AcDbSymbolTableRecord
100
AcDbBlockTableRecord
  2
*D3
340
0
  0
BLOCK_RECORD
  5
146
330
1
100
AcDbSymbolTableRecord
100
AcDbBlockTableRecord
  2
*D4
340
0
  0
BLOCK_RECORD
  5
17C
330
1
100
AcDbSymbolTableRecord
100
AcDbBlockTableRecord
  2
*D5
340
0
  0
BLOCK_RECORD
  5
185
330
1
100
AcDbSymbolTableRecord
100
AcDbBlockTableRecord
  2
*D6
340
0
  0
BLOCK_RECORD
  5
192
330
1
100
AcDbSymbolTableRecord
100
AcDbBlockTableRecord
  2
*D7
340
0
  0
BLOCK_RECORD
  5
19F
330
1
100
AcDbSymbolTableRecord
100
AcDbBlockTableRecord
  2
*D8
340
0
  0
BLOCK_RECORD
  5
1C6
330
1
100
AcDbSymbolTableRecord
100
AcDbBlockTableRecord
  2
*D10
340
0
  0
BLOCK_RECORD
  5
1CE
330
1
100
AcDbSymbolTableRecord
100
AcDbBlockTableRecord
  2
*D11
340
0
  0
BLOCK_RECORD
  5
1DB
330
1
100
AcDbSymbolTableRecord
100
AcDbBlockTableRecord
  2
*D12
340
0
  0
BLOCK_RECORD
  5
1E4
330
1
100
AcDbSymbolTableRecord
100
AcDbBlockTableRecord
  2
*D13
340
0
  0
ENDTAB
  0
ENDSEC
  0
SECTION
  2
BLOCKS
  0
BLOCK
  5
20
330
1F
100
AcDbEntity
  8
0
100
AcDbBlockBegin
  2
*Model_Space
 70
     0
 10
0.0
 20
0.0
 30
0.0
  3
*Model_Space
  1

  0
ENDBLK
  5
21
330
1F
100
AcDbEntity
  8
0
100
AcDbBlockEnd
  0
BLOCK
  5
5A
330
58
100
AcDbEntity
 67
     1
  8
0
100
AcDbBlockBegin
  2
*Paper_Space
 70
     0
 10
0.0
 20
0.0
 30
0.0
  3
*Paper_Space
  1

  0
ENDBLK
  5
5B
330
58
100
AcDbEntity
 67
     1
  8
0
100
AcDbBlockEnd
  0
BLOCK
  5
5F
330
5D
100
AcDbEntity
  8
0
100
AcDbBlockBegin
  2
*Paper_Space0
 70
     0
 10
0.0
 20
0.0
 30
0.0
  3
*Paper_Space0
  1

  0
ENDBLK
  5
60
330
5D
100
AcDbEntity
  8
0
100
AcDbBlockEnd
  0
BLOCK
  5
12E
330
128
100
AcDbEntity
  8
0
100
AcDbBlockBegin
  2
*D1
 70
     1
 10
0.0
 20
0.0
 30
0.0
  3
*D1
  1

  0
LINE
  5
153
330
128
100
AcDbEntity
  8
DIM
 62
     0
370
    -2
100
AcDbLine
 10
724.9198034075456
 20
680.5102595873497
 30
0.0
 11
422.3503740529723
 21
653.753584803238
 31
0.0
  0
MTEXT
  5
154
330
128
100
AcDbEntity
  8
DIM
 62
     0
100
AcDbMText
 10
782.0031034075457
 20
680.5102595873497
 30
0.0
 40
30.0
 41
0.0
 71
     5
 72
     1
  1
\A1;R678
 73
     1
 44
1.0
1001
ACAD
1000
MTEXTBEGIN
1070
    73
1070
     1
1070
    44
1040
1.0
1070
    74
1070
     0
1000
MTEXTEND
  0
SOLID
  5
155
330
128
100
AcDbEntity
  8
DIM
 62
     0
100
AcDbTrace
 10
421.7631223029833
 20
660.3943362536823
 30
0.0
 11
422.9376258029613
 21
647.1128333527937
 31
0.0
 12
382.5058653503061
 22
650.2300743033038
 32
0.0
 13
382.5058653503061
 23
650.2300743033038
 33
0.0
  0
POINT
  5
156
330
128
100
AcDbEntity
  8
DEFPOINTS
 62
     0
100
AcDbPoint
 10
382.5058653503061
 20
650.2300743033038
 30
0.0
  0
POINT
  5
157
330
128
100
AcDbEntity
  8
DEFPOINTS
 62
     0
100
AcDbPoint
 10
1057.870287860503
 20
709.9535772771892
 30
0.0
  0
ENDBLK
  5
12F
330
128
100
AcDbEntity
  8
0
100
AcDbBlockEnd
  0
BLOCK
  5
137
330
130
100
AcDbEntity
  8
0
100
AcDbBlockBegin
  2
*D2
 70
     1
 10
0.0
 20
0.0
 30
0.0
  3
*D2
  1

  0
LINE
  5
158
330
130
100
AcDbEntity
  8
DIM
 62
     0
370
    -2
100
AcDbLine
 10
330.01731717933
 20
413.4260983570095
 30
0.0
 11
370.0173171793299
 21
413.4260983570095
 31
0.0
  0
LINE
  5
159
330
130
100
AcDbEntity
  8
DIM
 62
     0
370
    -2
100
AcDbLine
 10
370.0173171793299
 20
413.4260983570095
 30
0.0
 11
396.5930953003353
 21
443.3213825547403
 31
0.0
  0
MTEXT
  5
15A
330
130
100
AcDbEntity
  8
DIM
 62
     0
100
AcDbMText
 10
302.9340171793299
 20
413.4260983570095
 30
0.0
 40
30.0
 41
0.0
 71
     5
 72
     1
  1
\A1;R5
 73
     1
 44
1.0
1001
ACAD
1000
MTEXTBEGIN
1070
    73
1070
     1
1070
    44
1040
1.0
1070
    74
1070
     0
1000
MTEXTEND
  0
SOLID
  5
15B
330
130
100
AcDbEntity
  8
DIM
 62
     0
100
AcDbTrace
 10
391.6105479340469
 20
447.7506789082412
 30
0.0
 11
401.5756426666237
 21
438.8920862012394
 31
0.0
 12
423.1688734213407
 22
473.216666752471
 32
0.0
 13
423.1688734213407
 23
473.216666752471
 33
0.0
  0
POINT
  5
15C
330
130
100
AcDbEntity
  8
DEFPOINTS
 62
     0
100
AcDbPoint
 10
423.1688734213407
 20
473.216666752471
 30
0.0
  0
POINT
  5
15D
330
130
100
AcDbEntity
  8
DEFPOINTS
 62
     0
100
AcDbPoint
 10
426.4908456864664
 20
476.9535772771873
 30
0.0
  0
ENDBLK
  5
138
330
130
100
AcDbEntity
  8
0
100
AcDbBlockEnd
  0
BLOCK
  5
144
330
139
100
AcDbEntity
  8
0
100
AcDbBlockBegin
  2
*D3
 70
     1
 10
0.0
 20
0.0
 30
0.0
  3
*D3
  1

  0
LINE
  5
15E
330
139
100
AcDbEntity
  8
DIM
 62
     0
370
    -2
100
AcDbLine
 10
1529.249730034537
 20
947.9535772771896
 30
0.0
 11
1811.779280283239
 21
947.9535772771894
 31
0.0
  0
LINE
  5
15F
330
139
100
AcDbEntity
  8
DIM
 62
     0
370
    -2
100
AcDbLine
 10
1529.249730034538
 20
471.9535772771896
 30
0.0
 11
1811.779280283239
 21
471.9535772771895
 31
0.0
  0
LINE
  5
160
330
139
100
AcDbEntity
  8
DIM
 62
     0
370
    -2
100
AcDbLine
 10
1796.77928028324
 20
907.9535772771896
 30
0.0
 11
1796.77928028324
 21
747.0368772771895
 31
0.0
  0
LINE
  5
161
330
139
100
AcDbEntity
  8
DIM
 62
     0
370
    -2
100
AcDbLine
 10
1796.779280283239
 20
511.9535772771896
 30
0.0
 11
1796.77928028324
 21
672.8702772771895
 31
0.0
  0
SOLID
  5
162
330
139
100
AcDbEntity
  8
DIM
 62
     0
100
AcDbTrace
 10
1790.112613616573
 20
907.9535772771896
 30
0.0
 11
1803.445946949906
 21
907.9535772771896
 31
0.0
 12
1796.77928028324
 22
947.9535772771894
 32
0.0
 13
1796.77928028324
 23
947.9535772771894
 33
0.0
  0
SOLID
  5
163
330
139
100
AcDbEntity
  8
DIM
 62
     0
100
AcDbTrace
 10
1790.112613616573
 20
511.9535772771896
 30
0.0
 11
1803.445946949906
 21
511.9535772771896
 31
0.0
 12
1796.779280283239
 22
471.9535772771895
 32
0.0
 13
1796.779280283239
 23
471.9535772771895
 33
0.0
  0
MTEXT
  5
164
330
139
100
AcDbEntity
  8
DIM
 62
     0
100
AcDbMText
 10
1796.779280283239
 20
709.9535772771899
 30
0.0
 40
30.0
 41
0.0
 71
     5
 72
     1
  1
\A1;\S477^ 476;
 73
     1
 44
1.0
1001
ACAD
1000
MTEXTBEGIN
1070
    73
1070
     1
1070
    44
1040
1.0
1070
    74
1070
     0
1000
MTEXTEND
  0
POINT
  5
165
330
139
100
AcDbEntity
  8
DEFPOINTS
 62
     0
100
AcDbPoint
 10
1509.249730034538
 20
947.9535772771896
 30
0.0
  0
POINT
  5
166
330
139
100
AcDbEntity
  8
DEFPOINTS
 62
     0
100
AcDbPoint
 10
1509.249730034538
 20
471.9535772771896
 30
0.0
  0
POINT
  5
167
330
139
100
AcDbEntity
  8
DEFPOINTS
 62
     0
100
AcDbPoint
 10
1796.779280283239
 20
471.9535772771895
 30
0.0
  0
ENDBLK
  5
145
330
139
100
AcDbEntity
  8
0
100
AcDbBlockEnd
  0
BLOCK
  5
151
330
146
100
AcDbEntity
  8
0
100
AcDbBlockBegin
  2
*D4
 70
     1
 10
0.0
 20
0.0
 30
0.0
  3
*D4
  1

  0
LINE
  5
168
330
146
100
AcDbEntity
  8
DIM
 62
     0
370
    -2
100
AcDbLine
 10
379.8702878605023
 20
809.9535772771874
 30
0.0
 11
379.8702878605023
 21
1171.995301227055
 31
0.0
  0
LINE
  5
169
330
146
100
AcDbEntity
  8
DIM
 62
     0
370
    -2
100
AcDbLine
 10
1555.870287860501
 20
809.9535772771892
 30
0.0
 11
1555.870287860501
 21
1171.995301227055
 31
0.0
  0
LINE
  5
16A
330
146
100
AcDbEntity
  8
DIM
 62
     0
370
    -2
100
AcDbLine
 10
419.8702878605023
 20
1156.995301227055
 30
0.0
 11
920.7869878605015
 21
1156.995301227055
 31
0.0
  0
LINE
  5
16B
330
146
100
AcDbEntity
  8
DIM
 62
     0
370
    -2
100
AcDbLine
 10
1515.870287860501
 20
1156.995301227055
 30
0.0
 11
1014.953587860501
 21
1156.995301227055
 31
0.0
  0
SOLID
  5
16C
330
146
100
AcDbEntity
  8
DIM
 62
     0
100
AcDbTrace
 10
419.8702878605023
 20
1163.661967893722
 30
0.0
 11
419.8702878605023
 21
1150.328634560388
 31
0.0
 12
379.8702878605023
 22
1156.995301227055
 32
0.0
 13
379.8702878605023
 23
1156.995301227055
 33
0.0
  0
SOLID
  5
16D
330
146
100
AcDbEntity
  8
DIM
 62
     0
100
AcDbTrace
 10
1515.870287860501
 20
1163.661967893722
 30
0.0
 11
1515.870287860501
 21
1150.328634560388
 31
0.0
 12
1555.870287860501
 22
1156.995301227055
 32
0.0
 13
1555.870287860501
 23
1156.995301227055
 33
0.0
  0
MTEXT
  5
16E
330
146
100
AcDbEntity
  8
DIM
 62
     0
100
AcDbMText
 10
967.8702878605015
 20
1156.995301227055
 30
0.0
 40
30.0
 41
0.0
 71
     5
 72
     1
  1
\A1;\S1177^ 1176;
 73
     1
 44
1.0
1001
ACAD
1000
MTEXTBEGIN
1070
    73
1070
     1
1070
    44
1040
1.0
1070
    74
1070
     0
1000
MTEXTEND
  0
POINT
  5
16F
330
146
100
AcDbEntity
  8
DEFPOINTS
 62
     0
100
AcDbPoint
 10
379.8702878605023
 20
709.9535772771873
 30
0.0
  0
POINT
  5
170
330
146
100
AcDbEntity
  8
DEFPOINTS
 62
     0
100
AcDbPoint
 10
1555.870287860501
 20
709.9535772771892
 30
0.0
  0
POINT
  5
171
330
146
100
AcDbEntity
  8
DEFPOINTS
 62
     0
100
AcDbPoint
 10
1555.870287860501
 20
1156.995301227055
 30
0.0
  0
ENDBLK
  5
152
330
146
100
AcDbEntity
  8
0
100
AcDbBlockEnd
  0
BLOCK
  5
17D
330
17C
100
AcDbEntity
  8
0
 48
15.0
100
AcDbBlockBegin
  2
*D5
 70
     1
 10
0.0
 20
0.0
 30
0.0
  3
*D5
  1

  0
LINE
  5
17E
330
17C
100
AcDbEntity
  8
0
  6
ByBlock
 62
     0
 48
15.0
100
AcDbLine
 10
-8647.66802060874
 20
1990.351743790424
 30
0.0
 11
-8673.123417400168
 21
1959.496877493663
 31
0.0
  0
LINE
  5
17F
330
17C
100
AcDbEntity
  8
0
  6
ByBlock
 62
     0
 48
15.0
100
AcDbLine
 10
-8673.123417400168
 20
1959.496877493663
 30
0.0
 11
-8713.123417400167
 21
1959.496877493663
 31
0.0
  0
SOLID
  5
180
330
17C
100
AcDbEntity
  8
0
  6
ByBlock
 62
     0
 48
15.0
100
AcDbTrace
 10
-8652.810498324866
 20
1994.594309922329
 30
0.0
 11
-8642.525542892611
 21
1986.109177658519
 31
0.0
 12
-8622.212623817311
 22
2021.206610087185
 32
0.0
 13
-8622.212623817311
 23
2021.206610087185
 33
0.0
  0
MTEXT
  5
181
330
17C
100
AcDbEntity
  8
0
  6
ByBlock
 62
     0
 48
15.0
100
AcDbMText
 10
-8740.206717400168
 20
1959.496877493663
 30
0.0
 40
30.0
 41
0.0
 71
     5
 72
     5
  1
\A1;R5
 73
     1
 44
1.0
1001
ACAD
1000
MTEXTBEGIN
1070
    73
1070
     1
1070
    44
1040
1.0
1070
    74
1070
     0
1000
MTEXTEND
  0
POINT
  5
182
330
17C
100
AcDbEntity
  8
DEFPOINTS
  6
ByBlock
 62
     0
 48
15.0
100
AcDbPoint
 10
-8622.212623817311
 20
2021.206610087185
 30
0.0
  0
POINT
  5
183
330
17C
100
AcDbEntity
  8
DEFPOINTS
  6
ByBlock
 62
     0
 48
15.0
100
AcDbPoint
 10
-8619.030699218383
 20
2025.06346837428
 30
0.0
  0
ENDBLK
  5
184
330
17C
100
AcDbEntity
  8
0
 48
15.0
100
AcDbBlockEnd
  0
BLOCK
  5
186
330
185
100
AcDbEntity
  8
0
 48
15.0
100
AcDbBlockBegin
  2
*D6
 70
     1
 10
0.0
 20
0.0
 30
0.0
  3
*D6
  1

  0
LINE
  5
187
330
185
100
AcDbEntity
  8
0
  6
ByBlock
 62
     0
 48
15.0
100
AcDbLine
 10
-10961.32158580941
 20
2358.063468374279
 30
0.0
 11
-10961.32158580941
 21
2692.341286230003
 31
0.0
  0
LINE
  5
188
330
185
100
AcDbEntity
  8
0
  6
ByBlock
 62
     0
 48
15.0
100
AcDbLine
 10
-10170.3215858094
 20
2358.063468374281
 30
0.0
 11
-10170.3215858094
 21
2692.341286230003
 31
0.0
  0
LINE
  5
189
330
185
100
AcDbEntity
  8
0
  6
ByBlock
 62
     0
 48
15.0
100
AcDbLine
 10
-10921.32158580941
 20
2677.341286230003
 30
0.0
 11
-10602.90488580941
 21
2677.341286230003
 31
0.0
  0
LINE
  5
18A
330
185
100
AcDbEntity
  8
0
  6
ByBlock
 62
     0
 48
15.0
100
AcDbLine
 10
-10210.3215858094
 20
2677.341286230003
 30
0.0
 11
-10528.73828580941
 21
2677.341286230003
 31
0.0
  0
SOLID
  5
18B
330
185
100
AcDbEntity
  8
0
  6
ByBlock
 62
     0
 48
15.0
100
AcDbTrace
 10
-10921.32158580941
 20
2684.007952896669
 30
0.0
 11
-10921.32158580941
 21
2670.674619563337
 31
0.0
 12
-10961.32158580941
 22
2677.341286230003
 32
0.0
 13
-10961.32158580941
 23
2677.341286230003
 33
0.0
  0
SOLID
  5
18C
330
185
100
AcDbEntity
  8
0
  6
ByBlock
 62
     0
 48
15.0
100
AcDbTrace
 10
-10210.3215858094
 20
2684.007952896669
 30
0.0
 11
-10210.3215858094
 21
2670.674619563337
 31
0.0
 12
-10170.3215858094
 22
2677.341286230003
 32
0.0
 13
-10170.3215858094
 23
2677.341286230003
 33
0.0
  0
MTEXT
  5
18D
330
185
100
AcDbEntity
  8
0
  6
ByBlock
 62
     0
 48
15.0
100
AcDbMText
 10
-10565.82158580941
 20
2677.341286230003
 30
0.0
 40
30.0
 41
0.0
 71
     5
 72
     5
  1
\A1;{791}
 73
     1
 44
1.0
1001
ACAD
1000
MTEXTBEGIN
1070
    73
1070
     1
1070
    44
1040
1.0
1070
    74
1070
     0
1000
MTEXTEND
  0
POINT
  5
18E
330
185
100
AcDbEntity
  8
DEFPOINTS
  6
ByBlock
 62
     0
 48
15.0
100
AcDbPoint
 10
-10961.32158580941
 20
2258.063468374279
 30
0.0
  0
POINT
  5
18F
330
185
100
AcDbEntity
  8
DEFPOINTS
  6
ByBlock
 62
     0
 48
15.0
100
AcDbPoint
 10
-10170.3215858094
 20
2258.063468374281
 30
0.0
  0
POINT
  5
190
330
185
100
AcDbEntity
  8
DEFPOINTS
  6
ByBlock
 62
     0
 48
15.0
100
AcDbPoint
 10
-10170.3215858094
 20
2677.341286230003
 30
0.0
  0
ENDBLK
  5
191
330
185
100
AcDbEntity
  8
0
 48
15.0
100
AcDbBlockEnd
  0
BLOCK
  5
193
330
192
100
AcDbEntity
  8
0
 48
15.0
100
AcDbBlockBegin
  2
*D7
 70
     1
 10
0.0
 20
0.0
 30
0.0
  3
*D7
  1

  0
LINE
  5
194
330
192
100
AcDbEntity
  8
0
  6
ByBlock
 62
     0
 48
15.0
100
AcDbLine
 10
-10196.94214363537
 20
2496.063468374281
 30
0.0
 11
-9897.128973220752
 21
2496.063468374281
 31
0.0
  0
LINE
  5
195
330
192
100
AcDbEntity
  8
0
  6
ByBlock
 62
     0
 48
15.0
100
AcDbLine
 10
-10196.94214363537
 20
2020.063468374281
 30
0.0
 11
-9897.128973220752
 21
2020.063468374281
 31
0.0
  0
LINE
  5
196
330
192
100
AcDbEntity
  8
0
  6
ByBlock
 62
     0
 48
15.0
100
AcDbLine
 10
-9912.128973220752
 20
2456.063468374281
 30
0.0
 11
-9912.128973220752
 21
2275.146768374281
 31
0.0
  0
LINE
  5
197
330
192
100
AcDbEntity
  8
0
  6
ByBlock
 62
     0
 48
15.0
100
AcDbLine
 10
-9912.128973220752
 20
2060.063468374281
 30
0.0
 11
-9912.128973220752
 21
2240.980168374282
 31
0.0
  0
SOLID
  5
198
330
192
100
AcDbEntity
  8
0
  6
ByBlock
 62
     0
 48
15.0
100
AcDbTrace
 10
-9918.795639887418
 20
2456.063468374281
 30
0.0
 11
-9905.462306554085
 21
2456.063468374281
 31
0.0
 12
-9912.128973220752
 22
2496.063468374281
 32
0.0
 13
-9912.128973220752
 23
2496.063468374281
 33
0.0
  0
SOLID
  5
199
330
192
100
AcDbEntity
  8
0
  6
ByBlock
 62
     0
 48
15.0
100
AcDbTrace
 10
-9918.795639887418
 20
2060.063468374281
 30
0.0
 11
-9905.462306554085
 21
2060.063468374281
 31
0.0
 12
-9912.128973220752
 22
2020.063468374281
 32
0.0
 13
-9912.128973220752
 23
2020.063468374281
 33
0.0
  0
MTEXT
  5
19A
330
192
100
AcDbEntity
  8
0
  6
ByBlock
 62
     0
 48
15.0
100
AcDbMText
 10
-9912.128973220752
 20
2258.063468374281
 30
0.0
 40
30.0
 41
0.0
 71
     5
 72
     5
  1
\A1;{476}
 73
     1
 44
1.0
1001
ACAD
1000
MTEXTBEGIN
1070
    73
1070
     1
1070
    44
1040
1.0
1070
    74
1070
     0
1000
MTEXTEND
  0
POINT
  5
19B
330
192
100
AcDbEntity
  8
DEFPOINTS
  6
ByBlock
 62
     0
 48
15.0
100
AcDbPoint
 10
-10216.94214363537
 20
2496.063468374281
 30
0.0
  0
POINT
  5
19C
330
192
100
AcDbEntity
  8
DEFPOINTS
  6
ByBlock
 62
     0
 48
15.0
100
AcDbPoint
 10
-10216.94214363537
 20
2020.063468374281
 30
0.0
  0
POINT
  5
19D
330
192
100
AcDbEntity
  8
DEFPOINTS
  6
ByBlock
 62
     0
 48
15.0
100
AcDbPoint
 10
-9912.128973220752
 20
2020.063468374281
 30
0.0
  0
ENDBLK
  5
19E
330
192
100
AcDbEntity
  8
0
 48
15.0
100
AcDbBlockEnd
  0
BLOCK
  5
1A0
330
19F
100
AcDbEntity
  8
0
 48
15.0
100
AcDbBlockBegin
  2
*D8
 70
     1
 10
0.0
 20
0.0
 30
0.0
  3
*D8
  1

  0
LINE
  5
1A1
330
19F
100
AcDbEntity
  8
0
  6
ByBlock
 62
     0
 48
15.0
100
AcDbLine
 10
-10283.32158580941
 20
2258.06346837428
 30
0.0
 11
-10722.88314039709
 21
2219.620827635191
 31
0.0
  0
LINE
  5
1A2
330
19F
100
AcDbEntity
  8
0
  6
ByBlock
 62
     0
 48
15.0
100
AcDbLine
 10
-10918.89556198493
 20
2202.478211260181
 30
0.0
 11
-10837.04974039709
 21
2209.636183749946
 31
0.0
  0
SOLID
  5
1A3
330
19F
100
AcDbEntity
  8
0
  6
ByBlock
 62
     0
 48
15.0
100
AcDbTrace
 10
-10919.47639016794
 20
2209.119527625651
 30
0.0
 11
-10918.31473380192
 21
2195.83689489471
 31
0.0
 12
-10958.74346017775
 22
2198.993242162118
 32
0.0
 13
-10958.74346017775
 23
2198.993242162118
 33
0.0
  0
MTEXT
  5
1A4
330
19F
100
AcDbEntity
  8
0
  6
ByBlock
 62
     0
 48
15.0
100
AcDbMText
 10
-10779.96644039709
 20
2214.628505692568
 30
0.0
 40
30.0
 41
0.0
 71
     5
 72
     5
  1
\A1;R678
 73
     1
 44
1.0
1001
ACAD
1000
MTEXTBEGIN
1070
    73
1070
     1
1070
    44
1040
1.0
1070
    74
1070
     0
1000
MTEXTEND
  0
POINT
  5
1A5
330
19F
100
AcDbEntity
  8
DEFPOINTS
  6
ByBlock
 62
     0
 48
15.0
100
AcDbPoint
 10
-10958.74346017775
 20
2198.993242162118
 30
0.0
  0
POINT
  5
1A6
330
19F
100
AcDbEntity
  8
DEFPOINTS
  6
ByBlock
 62
     0
 48
15.0
100
AcDbPoint
 10
-10283.32158580941
 20
2258.06346837428
 30
0.0
  0
ENDBLK
  5
1A7
330
19F
100
AcDbEntity
  8
0
 48
15.0
100
AcDbBlockEnd
  0
BLOCK
  5
1CC
330
1C6
100
AcDbEntity
  8
0
100
AcDbBlockBegin
  2
*D10
 70
     1
 10
0.0
 20
0.0
 30
0.0
  3
*D10
  1

  0
LINE
  5
1F1
330
1C6
100
AcDbEntity
  8
DIM
  6
Continuous
 62
     0
370
    -2
100
AcDbLine
 10
629.654664150399
 20
401.3751313710465
 30
0.0
 11
490.7255425625614
 21
389.2248369386588
 31
0.0
  0
MTEXT
  5
1F2
330
1C6
100
AcDbEntity
  8
DIM
  6
Continuous
 62
     0
100
AcDbMText
 10
686.7379641503991
 20
401.3751313710465
 30
0.0
 40
30.0
 41
0.0
 71
     5
 72
     1
  1
\A1;R678
 73
     1
 44
1.0
1001
ACAD
1000
MTEXTBEGIN
1070
    73
1070
     1
1070
    44
1040
1.0
1070
    74
1070
     0
1000
MTEXTEND
  0
SOLID
  5
1F3
330
1C6
100
AcDbEntity
  8
DIM
  6
Continuous
 62
     0
100
AcDbTrace
 10
490.1447143795509
 20
395.8661533041292
 30
0.0
 11
491.3063707455719
 21
382.5835205731884
 31
0.0
 12
450.8776443697388
 22
385.7398678405962
 32
0.0
 13
450.8776443697388
 23
385.7398678405962
 33
0.0
  0
POINT
  5
1F4
330
1C6
100
AcDbEntity
  8
DEFPOINTS
  6
Continuous
 62
     0
100
AcDbPoint
 10
450.8776443697388
 20
385.7398678405962
 30
0.0
  0
POINT
  5
1F5
330
1C6
100
AcDbEntity
  8
DEFPOINTS
  6
Continuous
 62
     0
100
AcDbPoint
 10
1126.299518738082
 20
444.8100940527579
 30
0.0
  0
ENDBLK
  5
1CD
330
1C6
100
AcDbEntity
  8
0
100
AcDbBlockEnd
  0
BLOCK
  5
1D9
330
1CE
100
AcDbEntity
  8
0
100
AcDbBlockBegin
  2
*D11
 70
     1
 10
0.0
 20
0.0
 30
0.0
  3
*D11
  1

  0
LINE
  5
1F6
330
1CE
100
AcDbEntity
  8
DIM
 62
     0
370
    -2
100
AcDbLine
 10
1212.67896091212
 20
682.8100940527592
 30
0.0
 11
1512.492131326742
 21
682.8100940527591
 31
0.0
  0
LINE
  5
1F7
330
1CE
100
AcDbEntity
  8
DIM
 62
     0
370
    -2
100
AcDbLine
 10
1212.678960912122
 20
206.8100940527592
 30
0.0
 11
1512.492131326742
 21
206.8100940527592
 31
0.0
  0
LINE
  5
1F8
330
1CE
100
AcDbEntity
  8
DIM
 62
     0
370
    -2
100
AcDbLine
 10
1497.492131326742
 20
642.8100940527591
 30
0.0
 11
1497.492131326742
 21
461.8933940527591
 31
0.0
  0
LINE
  5
1F9
330
1CE
100
AcDbEntity
  8
DIM
 62
     0
370
    -2
100
AcDbLine
 10
1497.492131326742
 20
246.8100940527591
 30
0.0
 11
1497.492131326742
 21
427.7267940527591
 31
0.0
  0
SOLID
  5
1FA
330
1CE
100
AcDbEntity
  8
DIM
 62
     0
100
AcDbTrace
 10
1490.825464660075
 20
642.8100940527591
 30
0.0
 11
1504.158797993409
 21
642.8100940527591
 31
0.0
 12
1497.492131326742
 22
682.8100940527591
 32
0.0
 13
1497.492131326742
 23
682.8100940527591
 33
0.0
  0
SOLID
  5
1FB
330
1CE
100
AcDbEntity
  8
DIM
 62
     0
100
AcDbTrace
 10
1490.825464660075
 20
246.8100940527591
 30
0.0
 11
1504.158797993409
 21
246.8100940527591
 31
0.0
 12
1497.492131326742
 22
206.8100940527592
 32
0.0
 13
1497.492131326742
 23
206.8100940527592
 33
0.0
  0
MTEXT
  5
1FC
330
1CE
100
AcDbEntity
  8
DIM
 62
     0
100
AcDbMText
 10
1497.492131326742
 20
444.8100940527593
 30
0.0
 40
30.0
 41
0.0
 71
     5
 72
     1
  1
\A1;{476}
 73
     1
 44
1.0
1001
ACAD
1000
MTEXTBEGIN
1070
    73
1070
     1
1070
    44
1040
1.0
1070
    74
1070
     0
1000
MTEXTEND
  0
POINT
  5
1FD
330
1CE
100
AcDbEntity
  8
DEFPOINTS
 62
     0
100
AcDbPoint
 10
1192.67896091212
 20
682.8100940527592
 30
0.0
  0
POINT
  5
1FE
330
1CE
100
AcDbEntity
  8
DEFPOINTS
 62
     0
100
AcDbPoint
 10
1192.678960912122
 20
206.8100940527592
 30
0.0
  0
POINT
  5
1FF
330
1CE
100
AcDbEntity
  8
DEFPOINTS
 62
     0
100
AcDbPoint
 10
1497.492131326742
 20
206.8100940527592
 30
0.0
  0
ENDBLK
  5
1DA
330
1CE
100
AcDbEntity
  8
0
100
AcDbBlockEnd
  0
BLOCK
  5
1E2
330
1DB
100
AcDbEntity
  8
0
100
AcDbBlockBegin
  2
*D12
 70
     1
 10
0.0
 20
0.0
 30
0.0
  3
*D12
  1

  0
LINE
  5
200
330
1DB
100
AcDbEntity
  8
DIM
 62
     0
370
    -2
100
AcDbLine
 10
400.8273583822646
 20
146.2435031721414
 30
0.0
 11
440.8273583822646
 21
146.2435031721414
 31
0.0
  0
LINE
  5
201
330
1DB
100
AcDbEntity
  8
DIM
 62
     0
370
    -2
100
AcDbLine
 10
440.8273583822646
 20
146.2435031721414
 30
0.0
 11
466.2827551736917
 21
177.0983694689025
 31
0.0
  0
MTEXT
  5
202
330
1DB
100
AcDbEntity
  8
DIM
 62
     0
100
AcDbMText
 10
373.7440583822646
 20
146.2435031721414
 30
0.0
 40
30.0
 41
0.0
 71
     5
 72
     1
  1
\A1;R5
 73
     1
 44
1.0
1001
ACAD
1000
MTEXTBEGIN
1070
    73
1070
     1
1070
    44
1040
1.0
1070
    74
1070
     0
1000
MTEXTEND
  0
SOLID
  5
203
330
1DB
100
AcDbEntity
  8
DIM
 62
     0
100
AcDbTrace
 10
461.1402774575649
 20
181.340935600807
 30
0.0
 11
471.4252328898186
 21
172.855803336998
 31
0.0
 12
491.7381519651189
 22
207.9532357656634
 32
0.0
 13
491.7381519651189
 23
207.9532357656634
 33
0.0
  0
POINT
  5
204
330
1DB
100
AcDbEntity
  8
DEFPOINTS
 62
     0
100
AcDbPoint
 10
491.7381519651189
 20
207.9532357656634
 30
0.0
  0
POINT
  5
205
330
1DB
100
AcDbEntity
  8
DEFPOINTS
 62
     0
100
AcDbPoint
 10
494.9200765640471
 20
211.8100940527583
 30
0.0
  0
ENDBLK
  5
1E3
330
1DB
100
AcDbEntity
  8
0
100
AcDbBlockEnd
  0
BLOCK
  5
1EF
330
1E4
100
AcDbEntity
  8
0
100
AcDbBlockBegin
  2
*D13
 70
     1
 10
0.0
 20
0.0
 30
0.0
  3
*D13
  1

  0
LINE
  5
206
330
1E4
100
AcDbEntity
  8
DIM
 62
     0
370
    -2
100
AcDbLine
 10
448.2995187380857
 20
544.8100940527574
 30
0.0
 11
448.2995187380857
 21
879.0879119084811
 31
0.0
  0
LINE
  5
207
330
1E4
100
AcDbEntity
  8
DIM
 62
     0
370
    -2
100
AcDbLine
 10
1239.299518738085
 20
544.8100940527592
 30
0.0
 11
1239.299518738085
 21
879.0879119084811
 31
0.0
  0
LINE
  5
208
330
1E4
100
AcDbEntity
  8
DIM
 62
     0
370
    -2
100
AcDbLine
 10
488.2995187380856
 20
864.0879119084811
 30
0.0
 11
806.7162187380857
 21
864.0879119084811
 31
0.0
  0
LINE
  5
209
330
1E4
100
AcDbEntity
  8
DIM
 62
     0
370
    -2
100
AcDbLine
 10
1199.299518738085
 20
864.0879119084811
 30
0.0
 11
880.8828187380857
 21
864.0879119084811
 31
0.0
  0
SOLID
  5
20A
330
1E4
100
AcDbEntity
  8
DIM
 62
     0
100
AcDbTrace
 10
488.2995187380856
 20
870.7545785751477
 30
0.0
 11
488.2995187380856
 21
857.4212452418144
 31
0.0
 12
448.2995187380857
 22
864.0879119084811
 32
0.0
 13
448.2995187380857
 23
864.0879119084811
 33
0.0
  0
SOLID
  5
20B
330
1E4
100
AcDbEntity
  8
DIM
 62
     0
100
AcDbTrace
 10
1199.299518738085
 20
870.7545785751477
 30
0.0
 11
1199.299518738085
 21
857.4212452418144
 31
0.0
 12
1239.299518738085
 22
864.0879119084811
 32
0.0
 13
1239.299518738085
 23
864.0879119084811
 33
0.0
  0
MTEXT
  5
20C
330
1E4
100
AcDbEntity
  8
DIM
 62
     0
100
AcDbMText
 10
843.7995187380856
 20
864.0879119084811
 30
0.0
 40
30.0
 41
0.0
 71
     5
 72
     1
  1
\A1;{791}
 73
     1
 44
1.0
1001
ACAD
1000
MTEXTBEGIN
1070
    73
1070
     1
1070
    44
1040
1.0
1070
    74
1070
     0
1000
MTEXTEND
  0
POINT
  5
20D
330
1E4
100
AcDbEntity
  8
DEFPOINTS
 62
     0
100
AcDbPoint
 10
448.2995187380857
 20
444.8100940527574
 30
0.0
  0
POINT
  5
20E
330
1E4
100
AcDbEntity
  8
DEFPOINTS
 62
     0
100
AcDbPoint
 10
1239.299518738085
 20
444.8100940527592
 30
0.0
  0
POINT
  5
20F
330
1E4
100
AcDbEntity
  8
DEFPOINTS
 62
     0
100
AcDbPoint
 10
1239.299518738085
 20
864.0879119084811
 30
0.0
  0
ENDBLK
  5
1F0
330
1E4
100
AcDbEntity
  8
0
100
AcDbBlockEnd
  0
ENDSEC
  0
SECTION
  2
ENTITIES
  0
DIMENSION
  5
1B9
330
1F
100
AcDbEntity
  8
DIM
  6
Continuous
 48
15.0
100
AcDbDimension
  2
*D10
 10
1126.299518738082
 20
444.8100940527579
 30
0.0
 11
629.654664150399
 21
401.3751313710465
 31
0.0
 70
   164
 71
     5
 42
678.0000000000013
  3
Standard
100
AcDbRadialDimension
 15
450.8776443697388
 25
385.7398678405962
 35
0.0
 40
0.0
1001
ACAD
1000
DSTYLE
1002
{
1070
    78
1070
     8
1070
   288
1070
     1
1070
   284
1070
     8
1070
   140
1040
30.0
1070
    47
1040
1.0
1070
   272
1070
     8
1070
   147
1040
2.083299999999999
1070
    42
1040
20.0
1070
    44
1040
15.0
1070
    43
1040
12.5
1070
   271
1070
     8
1070
   141
1040
0.0
1070
    41
1040
40.0
1070
   143
1040
0.03937
1002
}
  0
ARC
  5
1BA
330
1F
100
AcDbEntity
  8
0
 48
15.0
100
AcDbCircle
 10
1192.67896091212
 20
677.8100940527592
 30
0.0
 40
5.0
100
AcDbArc
 50
20.2557369715248
 51
90.0
  0
ARC
  5
1BB
330
1F
100
AcDbEntity
  8
0
 48
15.0
100
AcDbCircle
 10
1192.678960912124
 20
211.8100940527593
 30
0.0
 40
5.0
100
AcDbArc
 50
270.0
 51
339.7442630284752
  0
ARC
  5
1BC
330
1F
100
AcDbEntity
  8
0
 48
15.0
100
AcDbCircle
 10
561.2995187380838
 20
444.8100940527556
 30
0.0
 40
678.0000000000016
100
AcDbArc
 50
339.7442630284752
 51
20.2557369715248
  0
DIMENSION
  5
1BD
330
1F
100
AcDbEntity
  8
DIM
 48
15.0
100
AcDbDimension
  2
*D11
 10
1497.492131326742
 20
206.8100940527592
 30
0.0
 11
1497.492131326742
 21
444.8100940527593
 31
0.0
 70
    32
  1
{476}
 71
     5
 42
476.0
  3
Standard
100
AcDbAlignedDimension
 13
1192.67896091212
 23
682.8100940527592
 33
0.0
 14
1192.678960912122
 24
206.8100940527592
 34
0.0
 50
90.0
100
AcDbRotatedDimension
1001
ACAD
1000
DSTYLE
1002
{
1070
    78
1070
     8
1070
   284
1070
     8
1070
   140
1040
30.0
1070
    47
1040
1.0
1070
   272
1070
     8
1070
    72
1070
     1
1070
   147
1040
2.083299999999999
1070
    42
1040
20.0
1070
    44
1040
15.0
1070
    43
1040
12.5
1070
   271
1070
     8
1070
   141
1040
0.0
1070
    41
1040
40.0
1070
   143
1040
0.03937
1002
}
  0
ARC
  5
1BE
330
1F
100
AcDbEntity
  8
0
 48
15.0
100
AcDbCircle
 10
494.9200765640489
 20
677.8100940527574
 30
0.0
 40
5.0
100
AcDbArc
 50
90.0
 51
159.744263028487
  0
ARC
  5
1BF
330
1F
100
AcDbEntity
  8
0
 48
15.0
100
AcDbCircle
 10
494.9200765640489
 20
211.8100940527575
 30
0.0
 40
5.0
100
AcDbArc
 50
200.2557369715129
 51
270.0
  0
DIMENSION
  5
1C0
330
1F
100
AcDbEntity
  8
DIM
 48
15.0
100
AcDbDimension
  2
*D12
 10
494.9200765640471
 20
211.8100940527583
 30
0.0
 11
373.7440583822646
 21
146.2435031721414
 31
0.0
 70
    36
 71
     5
 42
4.999999999999658
  3
Standard
100
AcDbRadialDimension
 15
491.7381519651189
 25
207.9532357656634
 35
0.0
 40
0.0
1001
ACAD
1000
DSTYLE
1002
{
1070
    78
1070
     8
1070
   284
1070
     8
1070
   140
1040
30.0
1070
    47
1040
1.0
1070
   272
1070
     8
1070
   147
1040
2.083299999999999
1070
    42
1040
20.0
1070
    44
1040
4.166699999999999
1070
    43
1040
12.5
1070
   271
1070
     8
1070
   141
1040
0.0
1070
    41
1040
40.0
1070
   143
1040
0.03937
1002
}
  0
LINE
  5
1C1
330
1F
100
AcDbEntity
  8
0
 48
15.0
100
AcDbLine
 10
494.9200765640489
 20
206.8100940527577
 30
0.0
 11
751.2995187380856
 21
206.8100940527574
 31
0.0
  0
ARC
  5
1C2
330
1F
100
AcDbEntity
  8
0
 48
15.0
100
AcDbCircle
 10
1126.299518738087
 20
444.8100940527579
 30
0.0
 40
678.0000000000011
100
AcDbArc
 50
159.7442630284752
 51
200.2557369715248
  0
LINE
  5
1C3
330
1F
100
AcDbEntity
  8
0
 48
15.0
100
AcDbLine
 10
751.2995187380856
 20
206.8100940527574
 30
0.0
 11
1192.678960912122
 21
206.8100940527588
 31
0.0
  0
LINE
  5
1C4
330
1F
100
AcDbEntity
  8
0
 48
15.0
100
AcDbLine
 10
1192.67896091212
 20
682.8100940527592
 30
0.0
 11
494.9200765640489
 21
682.8100940527574
 31
0.0
  0
DIMENSION
  5
1C5
330
1F
100
AcDbEntity
  8
DIM
 48
15.0
100
AcDbDimension
  2
*D13
 10
1239.299518738085
 20
864.0879119084811
 30
0.0
 11
843.7995187380856
 21
864.0879119084811
 31
0.0
 70
    32
  1
{791}
 71
     5
 42
791.0
  3
Standard
100
AcDbAlignedDimension
 13
448.2995187380857
 23
444.8100940527574
 33
0.0
 14
1239.299518738085
 24
444.8100940527592
 34
0.0
100
AcDbRotatedDimension
1001
ACAD
1000
DSTYLE
1002
{
1070
    78
1070
     8
1070
   284
1070
     8
1070
   140
1040
30.0
1070
    47
1040
1.0
1070
   272
1070
     8
1070
    72
1070
     1
1070
   147
1040
2.083299999999999
1070
    42
1040
100.0
1070
    44
1040
15.0
1070
    43
1040
12.5
1070
   271
1070
     8
1070
   141
1040
0.0
1070
    41
1040
40.0
1070
   143
1040
0.03937
1002
}
  0
ENDSEC
  0
SECTION
  2
OBJECTS
  0
DICTIONARY
  5
C
330
0
100
AcDbDictionary
281
     1
  3
ACAD_COLOR
350
73
  3
ACAD_GROUP
350
D
  3
ACAD_LAYOUT
350
1A
  3
ACAD_MATERIAL
350
72
  3
ACAD_MLINESTYLE
350
17
  3
ACAD_PLOTSETTINGS
350
19
  3
ACAD_PLOTSTYLENAME
350
E
  3
ACDBHEADERROUNDTRIPXREC
350
21D
  3
AcDbVariableDictionary
350
66
  0
DICTIONARY
  5
73
102
{ACAD_REACTORS
330
C
102
}
330
C
100
AcDbDictionary
281
     1
  0
DICTIONARY
  5
D
102
{ACAD_REACTORS
330
C
102
}
330
C
100
AcDbDictionary
281
     1
  0
DICTIONARY
  5
1A
102
{ACAD_REACTORS
330
C
102
}
330
C
100
AcDbDictionary
281
     1
  3
Layout1
350
59
  3
Layout2
350
5E
  3
Model
350
22
  0
DICTIONARY
  5
72
102
{ACAD_REACTORS
330
C
102
}
330
C
100
AcDbDictionary
281
     1
  0
DICTIONARY
  5
17
102
{ACAD_REACTORS
330
C
102
}
330
C
100
AcDbDictionary
281
     1
  3
Standard
350
18
  0
DICTIONARY
  5
19
102
{ACAD_REACTORS
330
C
102
}
330
C
100
AcDbDictionary
281
     1
  0
ACDBDICTIONARYWDFLT
  5
E
102
{ACAD_REACTORS
330
C
102
}
330
C
100
AcDbDictionary
281
     1
  3
Normal
350
F
100
AcDbDictionaryWithDefault
340
F
  0
DICTIONARY
  5
21D
102
{ACAD_REACTORS
330
C
102
}
330
C
100
AcDbDictionary
281
     1
  3
COLORDICT
350
21F
  3
MATERIALDICT
350
21E
  0
DICTIONARY
  5
66
102
{ACAD_REACTORS
330
C
102
}
330
C
100
AcDbDictionary
281
     1
  3
DIMASSOC
350
67
  3
HIDETEXT
350
6B
  3
PROJECTNAME
350
211
  0
LAYOUT
  5
59
102
{ACAD_XDICTIONARY
360
222
102
}
102
{ACAD_REACTORS
330
1A
102
}
330
1A
100
AcDbPlotSettings
  1

  2
None
  4

  6

 40
0.0
 41
0.0
 42
0.0
 43
0.0
 44
0.0
 45
0.0
 46
0.0
 47
0.0
 48
0.0
 49
0.0
140
0.0
141
0.0
142
1.0
143
1.0
 70
   688
 72
     0
 73
     0
 74
     5
  7

 75
    16
147
1.0
148
0.0
149
0.0
100
AcDbLayout
  1
Layout1
 70
     1
 71
     1
 10
0.0
 20
0.0
 11
12.0
 21
9.0
 12
0.0
 22
0.0
 32
0.0
 14
0.0
 24
0.0
 34
0.0
 15
0.0
 25
0.0
 35
0.0
146
0.0
 13
0.0
 23
0.0
 33
0.0
 16
1.0
 26
0.0
 36
0.0
 17
0.0
 27
1.0
 37
0.0
 76
     0
330
58
  0
LAYOUT
  5
5E
102
{ACAD_XDICTIONARY
360
224
102
}
102
{ACAD_REACTORS
330
1A
102
}
330
1A
100
AcDbPlotSettings
  1

  2
None
  4

  6

 40
0.0
 41
0.0
 42
0.0
 43
0.0
 44
0.0
 45
0.0
 46
0.0
 47
0.0
 48
0.0
 49
0.0
140
0.0
141
0.0
142
1.0
143
1.0
 70
   688
 72
     0
 73
     0
 74
     5
  7

 75
    16
147
1.0
148
0.0
149
0.0
100
AcDbLayout
  1
Layout2
 70
     1
 71
     2
 10
0.0
 20
0.0
 11
12.0
 21
9.0
 12
0.0
 22
0.0
 32
0.0
 14
0.0
 24
0.0
 34
0.0
 15
0.0
 25
0.0
 35
0.0
146
0.0
 13
0.0
 23
0.0
 33
0.0
 16
1.0
 26
0.0
 36
0.0
 17
0.0
 27
1.0
 37
0.0
 76
     0
330
5D
  0
LAYOUT
  5
22
102
{ACAD_XDICTIONARY
360
220
102
}
102
{ACAD_REACTORS
330
1A
102
}
330
1A
100
AcDbPlotSettings
  1

  2
none_device
  4
ANSI_A_(8.50_x_11.00_Inches)
  6

 40
6.349999904632568
 41
19.04999923706055
 42
6.350006103515625
 43
19.04998779296875
 44
215.8999938964844
 45
279.3999938964844
 46
0.0
 47
0.0
 48
0.0
 49
0.0
140
0.0
141
0.0
142
1.0
143
2.584895464708373
 70
 11952
 72
     0
 73
     1
 74
     0
  7

 75
     0
147
0.3868628397755418
148
0.0
149
0.0
100
AcDbLayout
  1
Model
 70
     1
 71
     0
 10
0.0
 20
0.0
 11
12.0
 21
9.0
 12
0.0
 22
0.0
 32
0.0
 14
0.0
 24
0.0
 34
0.0
 15
0.0
 25
0.0
 35
0.0
146
0.0
 13
0.0
 23
0.0
 33
0.0
 16
1.0
 26
0.0
 36
0.0
 17
0.0
 27
1.0
 37
0.0
 76
     0
330
1F
  0
MLINESTYLE
  5
18
102
{ACAD_REACTORS
330
17
102
}
330
17
100
AcDbMlineStyle
  2
STANDARD
 70
     0
  3

 62
   256
 51
90.0
 52
90.0
 71
     2
 49
0.5
 62
   256
  6
BYLAYER
 49
-0.5
 62
   256
  6
BYLAYER
  0
ACDBPLACEHOLDER
  5
F
102
{ACAD_REACTORS
330
E
102
}
330
E
  0
XRECORD
  5
21F
102
{ACAD_REACTORS
330
21D
102
}
330
21D
100
AcDbXrecord
280
     1
340
73
  0
XRECORD
  5
21E
102
{ACAD_REACTORS
330
21D
102
}
330
21D
100
AcDbXrecord
280
     1
340
72
  0
DICTIONARYVAR
  5
67
102
{ACAD_REACTORS
330
66
102
}
330
66
100
DictionaryVariables
280
     0
  1
2
  0
DICTIONARYVAR
  5
6B
102
{ACAD_REACTORS
330
66
102
}
330
66
100
DictionaryVariables
280
     0
  1
1
  0
DICTIONARYVAR
  5
211
102
{ACAD_REACTORS
330
66
102
}
330
66
100
DictionaryVariables
280
     0
  1

  0
DICTIONARY
  5
222
330
59
100
AcDbDictionary
280
     1
281
     1
  3
ACAD_XREC_ROUNDTRIP
360
223
  0
DICTIONARY
  5
224
330
5E
100
AcDbDictionary
280
     1
281
     1
  3
ACAD_XREC_ROUNDTRIP
360
225
  0
DICTIONARY
  5
220
330
22
100
AcDbDictionary
280
     1
281
     1
  3
ACAD_XREC_ROUNDTRIP
360
221
  0
XRECORD
  5
223
102
{ACAD_REACTORS
330
222
102
}
330
222
100
AcDbXrecord
280
     1
102
SHADEPLOT
 70
     0
102
SHADEPLOTRESLEVEL
 70
     2
102
SHADEPLOTCUSTOMDPI
 70
   300
  0
XRECORD
  5
225
102
{ACAD_REACTORS
330
224
102
}
330
224
100
AcDbXrecord
280
     1
102
SHADEPLOT
 70
     0
102
SHADEPLOTRESLEVEL
 70
     2
102
SHADEPLOTCUSTOMDPI
 70
   300
  0
XRECORD
  5
221
102
{ACAD_REACTORS
330
220
102
}
330
220
100
AcDbXrecord
280
     1
102
SHADEPLOT
 70
     0
102
SHADEPLOTRESLEVEL
 70
     2
102
SHADEPLOTCUSTOMDPI
 70
   300
  0
ENDSEC
  0
EOF
